<?xml version="1.0" standalone="no"?>
<!DOCTYPE svg PUBLIC "-//W3C//DTD SVG 1.1//EN" "http://www.w3.org/Graphics/SVG/1.1/DTD/svg11.dtd" >
<svg xmlns="http://www.w3.org/2000/svg" xmlns:xlink="http://www.w3.org/1999/xlink" version="1.1">
<metadata>
Created by FontForge 20230101 at Tue Oct 14 00:06:40 2014
 By Unknown
Copyright (c) 2013 by Cultivated Mind. All rights reserved.
</metadata>
<defs>
<font id="LUELLAW04-Bold" horiz-adv-x="292" >
  <font-face 
    font-family="LUELLAW04-Bold"
    font-weight="700"
    font-stretch="normal"
    units-per-em="1000"
    panose-1="2 0 8 8 5 0 0 2 0 4"
    ascent="800"
    descent="-200"
    x-height="543"
    cap-height="754"
    bbox="-64 -299 765 999"
    underline-thickness="50"
    underline-position="-175"
    unicode-range="U+000D-FB05"
  />
<missing-glyph horiz-adv-x="166" 
 />
    <glyph glyph-name="uniFB00" unicode="ff" horiz-adv-x="514" 
d="M114 523q0 -51 1 -100.5t3 -98.5q2 -50 3.5 -99t1.5 -100v-95q0 -28 -29 -28q-23 0 -27 15q-3 15 -3 33v107q0 27 -0.5 53.5t-1.5 53.5l-2 36t-1 36q0 17 -0.5 35t-0.5 37q-1 14 -0.5 28.5t0.5 28.5q0 15 -0.5 29.5t-0.5 28.5h-7q-2 1 -6 1q-7 0 -11 -1t-11 -1
q-11 0 -16 4q-7 5 -7 16q0 15 14 18q13 3 25 3h20q0 34 3 70q1 34 14 67q3 6 6 12.5t7 13.5q4 8 9 14.5t10 12.5q10 12 24 21q13 8 27 8q21 0 37 -14q14 -14 23 -32q4 -7 6 -16q2 -5 2.5 -9t1.5 -9q1 -2 2 -4.5t2 -5.5q1 -4 1 -10q0 -7 -3 -13q-5 -5 -12 -5q-11 0 -17 11
t-10 26q-2 7 -4.5 13.5t-4.5 11.5q-5 12 -16 12q-4 0 -7 -3q-2 -1 -3.5 -2t-3.5 -2q-14 -11 -20 -33q-4 -11 -6.5 -22.5t-4.5 -23.5q-2 -13 -3 -25.5t-1 -24.5q-1 -13 -1 -23v-18l193 2q1 17 1.5 34.5t1.5 35.5q1 34 14 67q3 6 6 12.5t7 13.5q7 13 18 27q6 6 11.5 11
t12.5 10q13 8 27 8q20 0 37 -14q16 -16 24 -32q4 -7 6 -16q1 -5 1.5 -9t2.5 -9q2 -6 3 -10t1 -10q0 -7 -3 -13q-5 -5 -12 -5q-12 0 -17 11q-2 6 -4.5 12t-4.5 14q-2 7 -4.5 13.5t-4.5 11.5q-6 12 -18 12q-3 0 -6 -3q-2 -1 -3 -2t-3 -2q-14 -11 -22 -33q-3 -11 -5.5 -22.5
t-4.5 -23.5t-3 -24.5t-1 -24.5q-1 -13 -1 -23t-1 -19h72h9.5t9.5 -2q10 -3 10 -15q0 -17 -18 -18q-33 -3 -66 -3h-9q-5 1 -9 0q0 -51 1.5 -100.5t3.5 -98.5q2 -50 3.5 -99t1.5 -100v-95q0 -28 -29 -28q-23 0 -27 15q-4 12 -4 33v107q1 27 0.5 53.5t-1.5 53.5l-3 72
q-1 17 -1 35v37v57v29.5t-1 28.5h-194z" />
    <glyph glyph-name="uniFB01" unicode="fi" horiz-adv-x="390" 
d="M301 625q-19 0 -31 18q-11 17 -11 35q0 16 9 31q10 15 28 15q20 0 31 -15q12 -15 12 -33t-9 -34q-9 -17 -29 -17zM332 535v-23v-26.5t0.5 -26t0.5 -22.5q0 -20 0.5 -40.5t0.5 -40.5q0 -41 -0.5 -80.5t-1.5 -80.5t-1.5 -81t-0.5 -81v-11q0 -6 -4 -11q-3 -4 -16 -8
q-12 -3 -20 -3q-16 0 -26 7q-8 8 -8 26q0 20 0.5 38.5t1.5 37.5q1 20 1.5 38.5t0.5 38.5v154q1 38 1 76.5v76.5v32q-17 -1 -38 -1.5t-40.5 -0.5h-34.5h-21h-9q-5 1 -9 0q0 -51 1.5 -100.5t3.5 -98.5q2 -50 3.5 -99t1.5 -100v-95q0 -28 -29 -28q-23 0 -27 15q-4 12 -4 33v107
q1 27 0.5 53.5t-1.5 53.5l-3 72q-1 17 -1 35v37v57v29.5t-1 28.5h-7q-2 1 -6 1q-7 0 -11 -1t-11 -1q-11 0 -16 4q-7 4 -7 16q0 15 14 18q13 3 24 3h21q1 17 1 34.5t2 35.5q1 34 14 67q2 6 5.5 12.5t7.5 13.5q7 13 18 27q10 12 24 21q13 8 26 8q21 0 37 -14q16 -15 25 -32
q6 -14 9 -28q2 -9 5 -19.5t-4 -19.5q-3 -5 -11 -5q-12 0 -17 11q-2 6 -4.5 12t-4.5 14q-2 7 -4.5 13.5t-4.5 11.5q-6 12 -18 12q-4 0 -7 -3q-2 -1 -5 -4q-15 -12 -22 -34q-4 -11 -6.5 -22.5t-4.5 -23.5q-3 -24 -3 -48q-1 -12 -1 -22.5t-1 -19.5h175q8 0 11 -1h5q8 0 11 -1
q14 -2 17 -7t3 -17z" />
    <glyph glyph-name="uniFB02" unicode="fl" horiz-adv-x="400" 
d="M338 158q1 -32 1.5 -65t0.5 -65q0 -21 -6 -25q-8 -4 -25 -4q-9 0 -21 3t-12 16v94v42.5t1 41.5q1 21 1.5 42t0.5 43v168q0 40 -0.5 79.5t-1.5 79.5v55q-1 1 -1 11v79h-35.5t-35 -2.5t-29.5 -7t-17 -11.5q-14 -11 -22 -34q-4 -11 -6 -22.5t-4 -23.5q-2 -13 -3 -25.5
t-2 -24.5q-1 -13 -1 -23v-18h71q8 0 19 -3t11 -14q0 -8 -5 -13q-7 -5 -13 -5q-8 -1 -16.5 -1.5t-17.5 -1.5h-33h-9q-5 1 -9 0q0 -51 1.5 -100.5t3.5 -98.5q2 -50 3 -99t1 -100v-95q0 -28 -29 -28q-23 0 -26 15q-4 13 -4 33v107q0 27 -0.5 53.5t-1.5 53.5l-3 72q0 17 -0.5 35
t-0.5 37v57v29.5t-1 28.5h-6q-3 1 -7 1q-7 0 -11 -1t-10 -1q-10 0 -17 4q-6 4 -6 16q0 15 14 18q13 3 24 3h20q1 17 3 33t3 34q2 18 4.5 33.5t7.5 32.5q3 16 13 30q7 15 18 27q5 6 11.5 11t12.5 10q22 15 50.5 19t54.5 4q10 0 26.5 1.5t32.5 0t27.5 -8t11.5 -21.5v-91.5
t-1 -91.5t-1 -91.5v-91.5v-116q0 -32 0.5 -64.5t0.5 -64.5z" />
    <glyph glyph-name="uniFB03" unicode="ffi" horiz-adv-x="659" 
d="M572 625q-21 0 -31 18q-11 15 -11 35q0 16 9 31t28 15t31 -15q11 -14 11 -33q0 -18 -9 -34q-8 -17 -28 -17zM118 523q-3 2 -8 0q0 -51 1 -100.5t4 -98.5q2 -50 3 -99t1 -100v-95q0 -28 -28 -28q-23 0 -27 15q-5 15 -5 33q0 26 0.5 53t0.5 54v53.5t-2 53.5l-3 72
q0 17 -0.5 35t-0.5 37v57q0 14 0.5 29t-1.5 29q-10 0 -24.5 -0.5t-23.5 3.5q-6 2 -8.5 7.5t-1.5 11t4.5 10t9.5 5.5q13 3 25 3h20q1 17 1.5 34.5t1.5 35.5q2 18 5 34.5t10 32.5q5 14 12 26q10 17 19 27q10 11 23 21q14 8 28 8q22 0 36 -15q16 -16 24 -31q2 -5 4 -8.5t3 -7.5
q0 -5 1 -9t2 -9q2 -6 3 -10q2 -8 2 -10q0 -8 -4 -13q-5 -5 -12 -5q-10 0 -14 8q-6 7 -9 18q-2 6 -3 11.5t-3 10.5q-3 10 -8 17l-6 6q-5 3 -8 3q-5 0 -8 -3q-2 -1 -3 -2t-3 -2q-14 -12 -21 -33q-8 -23 -11 -46q-2 -12 -3 -24.5t-1 -24.5q0 -13 -0.5 -23t-0.5 -19q63 1 98 1.5
t52 0.5h24h21v34.5t2 35.5q1 34 14 67q2 6 5.5 12.5t7.5 13.5q5 7 9.5 13.5t9.5 13.5q10 12 24 21q13 8 26 8q17 0 28 -7q6 -4 11 -9l10 -10q5 -6 8 -12.5t6 -14.5q3 -7 4.5 -13.5t3.5 -13.5q2 -6 3 -10t1 -10q0 -7 -3 -13q-5 -5 -12 -5q-11 0 -17 11q-2 6 -4.5 12t-4.5 14
q-2 7 -4.5 13.5t-5.5 11.5q-5 12 -16 12q-4 0 -7 -3q-2 -1 -3.5 -2t-3.5 -2q-14 -13 -20 -34q-4 -11 -6.5 -22.5t-4.5 -23.5t-2.5 -24.5t-1.5 -24.5v-22t-1 -19h212q17 0 22.5 -12.5t5.5 -27.5q1 -21 1 -42v-42q1 -20 1 -40.5v-40.5v-80.5t-2 -80.5q-1 -41 -1.5 -81
t-0.5 -81v-11q0 -5 -3 -11q-5 -5 -17 -8q-11 -3 -19 -3q-16 0 -26 7q-8 7 -8 26v38.5t2 37.5q1 20 1.5 38.5t0.5 38.5v154v153v31q-21 0 -50 -0.5t-55 -0.5h-45h-20q-1 -3 -1 -9v-9q0 -48 0.5 -103t2.5 -103t3 -90t2 -90l1 -89q0 -28 -27 -28q-24 0 -27 15q-4 12 -4 33v107
q0 27 -0.5 53.5t-1.5 53.5q-2 32 -2.5 64.5t-1.5 64.5v130h-187z" />
    <glyph glyph-name="uniFB04" unicode="ffl" horiz-adv-x="625" 
d="M566 154q1 -32 1 -63.5v-63.5q0 -20 -6 -24t-24 -4q-9 0 -21 3q-13 3 -13 16v91q0 22 0.5 42.5t1.5 40.5t1 41v42v164q0 49 1 97.5t1 96.5q1 20 1 41v41v8t-1 9q-5 3 -10 3h-27t-27 -2q-10 -2 -20.5 -2.5t-19.5 -5.5q-20 -9 -27.5 -31t-9.5 -42q-2 -12 -3 -24.5t-1 -24.5
q-1 -13 -1 -23t-1 -19h72h9.5t9.5 -2q10 -3 10 -15q0 -17 -18 -18q-33 -3 -66 -3q-2 0 -8.5 0.5t-9.5 -0.5q0 -51 1.5 -100.5t3.5 -98.5q3 -50 4 -99t1 -100v-95q0 -28 -28 -28q-24 0 -28 15q-2 7 -3 15t-1 18v53t1 54v53.5t-2 53.5l-3 72q-1 17 -1 35v37v57v29.5t-1 28.5
h-15h-35h-46h-46h-35.5h-15.5q0 -51 1 -100.5t3 -98.5q2 -50 3.5 -99t1.5 -100v-95q0 -28 -29 -28q-23 0 -26 15q-4 13 -4 33v107q0 27 -0.5 53.5t-1.5 53.5l-3 72q0 17 -0.5 35t-0.5 37q-1 14 -0.5 28.5t0.5 28.5q0 15 -0.5 29.5t-0.5 28.5q-17 -2 -30 0q-11 2 -20 6t-7 13
q0 15 13 18q15 3 25 3h20q0 34 3 70q1 34 14 67q3 6 6 12.5t7 13.5q10 17 19 27q10 12 24 21q13 8 27 8q21 0 37 -14q8 -8 13.5 -15.5t9.5 -16.5q4 -7 6 -16q2 -5 2.5 -9t1.5 -9q2 -4 4 -10q1 -4 1 -10q0 -7 -3 -13q-5 -5 -12 -5q-11 0 -17 11q-2 6 -5 12t-5 14
q-2 7 -4.5 13.5t-4.5 11.5q-5 12 -16 12q-4 0 -7 -3q-2 -1 -3.5 -2t-3.5 -2q-14 -11 -20 -33q-4 -11 -6.5 -22.5t-4.5 -23.5q-2 -13 -2.5 -25.5t-1.5 -24.5q-1 -13 -1 -23v-18l192 2q1 17 1.5 34.5t1.5 35.5q1 35 15 67q5 14 12 26q7 14 19.5 24t26.5 16q29 11 56 13
q17 1 31 1.5t28 2.5q26 2 48 -8.5t22 -39.5v-80.5t-1 -80.5q0 -45 -0.5 -90t-0.5 -90v-112q0 -32 0.5 -64t1.5 -64z" />
    <glyph glyph-name=".notdef" horiz-adv-x="166" 
 />
    <glyph glyph-name="glyph1" horiz-adv-x="0" 
 />
    <glyph glyph-name="uni000D" unicode="&#xd;" horiz-adv-x="166" 
 />
    <glyph glyph-name="space" unicode=" " horiz-adv-x="166" 
 />
    <glyph glyph-name="exclam" unicode="!" horiz-adv-x="151" 
d="M36 1q-18 0 -28.5 14.5t-10.5 31.5q0 43 43 43q17 0 28.5 -12.5t11.5 -29.5t-13 -32t-31 -15zM10 191q0 16 0.5 31t-0.5 31q-1 14 -1 27t-1 27q-2 44 -4 86.5t-2 86.5q0 48 1.5 94t1.5 94l-1 1q-1 15 -1.5 30.5t-0.5 30.5t12 23t26 8q12 0 22 -7t12 -20q4 -42 3.5 -85
t-0.5 -85q0 -5 -0.5 -10.5t-0.5 -10.5v-85.5t-2 -85.5q-2 -28 -3.5 -55.5t-1.5 -54.5v-19q0 -13 -1 -26t-1 -26q0 -14 -5 -19.5t-21 -5.5q-12 0 -21.5 5.5t-9.5 19.5z" />
    <glyph glyph-name="quotedbl" unicode="&#x22;" horiz-adv-x="176" 
d="M74 730q0 8 4 15t13 7h4q14 0 18 -10.5t4 -21.5q0 -16 -0.5 -31.5t-0.5 -31.5v-90q0 -11 -4 -19t-17 -8q-10 0 -15.5 7.5t-5.5 16.5v166zM20 540q-14 0 -17.5 13t-3.5 24q0 19 0.5 37.5t0.5 37.5v57q0 5 -0.5 12t1 14t5 11.5t11.5 4.5q1 1 3 1q16 0 19.5 -11.5t3.5 -23.5
q0 -17 -1 -33t-1 -33v-69q0 -6 0.5 -13.5t-1 -14t-6 -10.5t-14.5 -4z" />
    <glyph glyph-name="numbersign" unicode="#" horiz-adv-x="569" 
d="M76 209q-10 0 -20 -0.5t-21 -0.5q-17 0 -24.5 3.5t-7.5 23.5q0 19 17 22q17 2 36 2t36 1q13 49 26 97.5t27 97.5q-10 0 -20 0.5t-20 0.5q-5 0 -13.5 -0.5t-17.5 0t-16.5 2t-10.5 4.5q-4 4 -5 11.5t-1 12.5q0 14 10 17t21 3h83q2 8 3.5 14.5t3.5 14.5q11 48 22.5 95.5
t25.5 95.5q4 13 14.5 20.5t24.5 7.5q13 0 22 -8t9 -21q0 -5 -3.5 -21.5t-9 -39t-12.5 -48t-13.5 -48.5t-11.5 -40t-7 -23q7 0 13 -0.5t13 -0.5q29 0 56.5 1.5t56.5 1.5q15 52 28.5 104.5t27.5 105.5q2 8 5.5 16.5t11.5 13.5q10 6 23 6q15 0 26.5 -7t11.5 -24q0 -8 -3 -15
q-11 -33 -21.5 -66t-19.5 -67q-5 -17 -9.5 -33.5t-9.5 -33.5q12 1 23.5 2t23.5 1q11 0 20.5 -8t9.5 -19q0 -14 -12 -20.5t-24 -6.5l-54 -1q-9 -38 -20 -74t-19 -74q0 -2 -2 -7.5t-3.5 -11.5t-3 -10.5t-1.5 -5.5v-3q8 0 15 1.5t15 1.5q19 0 26.5 -4t7.5 -25q0 -14 -10.5 -18
t-21.5 -4t-21.5 -1t-21.5 -1q-1 -2 -1 -4t-1 -4q-8 -32 -15.5 -63t-15.5 -63q-5 -18 -9 -36t-9 -36q-3 -11 -7 -15t-15 -4q-4 0 -7 1t-7 3q-10 5 -15 9.5t-5 16.5q0 15 4 31.5t7 31.5q7 32 13.5 63t14.5 63h1v1q-38 -2 -74.5 -4t-74.5 -4l-37 -141q-2 -7 -4 -16.5t-5.5 -19
t-8 -17t-11.5 -10.5h-1q-3 -2 -6.5 -2h-6.5q-28 0 -28 27q0 8 3.5 24t8.5 34t10 35t8 27q4 16 7.5 31t8.5 31h-6zM158 259q36 0 72.5 1.5t72.5 5.5q12 48 24 94t23 94h-142q-5 -22 -11.5 -43t-11.5 -43q-7 -27 -13 -54.5t-14 -54.5z" />
    <glyph glyph-name="dollar" unicode="$" horiz-adv-x="324" 
d="M152 281q2 -23 1.5 -45.5t0.5 -45.5q2 -36 2.5 -72t2.5 -72q17 16 22.5 39t5.5 46q0 38 -8.5 76.5t-26.5 73.5zM112 508q-2 9 -3 29t-1.5 42.5t-0.5 43.5v32v25v33q-17 -6 -28 -22.5t-11 -34.5q0 -24 3 -42.5t9 -35t14 -33.5t18 -37zM22 175q11 0 21.5 -22t21 -48.5
t23 -48.5t28.5 -22h8q0 78 -4 156t-4 156q-14 24 -33 58.5t-36 71t-28.5 72.5t-11.5 64q0 20 6.5 42t18 41.5t27.5 34.5t36 22q6 2 10 2q-1 4 -1 8v9q0 15 4 27q2 2 5.5 3.5t6.5 1.5q7 0 11.5 -4.5t6.5 -11t2.5 -13.5t0.5 -12v-11q20 -5 32.5 -17t25.5 -28q8 -10 14 -24.5
t9.5 -30t5.5 -31.5t2 -29q0 -10 -2.5 -22.5t-16.5 -12.5q-2 0 -7 1.5t-7 3.5q-6 5 -6 15q0 17 -1 36.5t-6 38t-14.5 34t-26.5 24.5q2 -69 4 -136t2 -136q16 -30 34 -64t33.5 -69.5t26 -72t10.5 -70.5q0 -25 -4.5 -50t-15.5 -47t-28.5 -39t-43.5 -25q1 -10 1.5 -19.5
t0.5 -19.5t-2.5 -16t-14.5 -6q-8 0 -12 4.5t-6 10.5t-2.5 13t-0.5 12v15q-21 0 -35.5 8t-27.5 25q-7 10 -17 26.5t-19 35t-15.5 36t-6.5 29.5q0 8 5 14.5t13 6.5z" />
    <glyph glyph-name="percent" unicode="%" horiz-adv-x="442" 
d="M195 147q0 23 4 56t15.5 63t31 51t50.5 21q23 0 36.5 -21.5t20.5 -50.5t9 -59t2 -46q0 -29 -5 -59.5t-18 -56.5q-10 -20 -21.5 -30.5t-35.5 -10.5h-9h-2q-24 5 -39 20.5t-23.5 35.5t-12 43t-3.5 44zM321 164q0 23 -4 53t-19 48q-4 4 -8 7.5t-10 3.5q-7 0 -13 -6
q-11 -10 -18 -24.5t-12 -30.5t-7 -32.5t-2 -30.5q0 -10 1 -20t3 -20q4 -19 12 -27.5t26 -13.5q2 -1 6 -1q16 0 25.5 10.5t13.5 25t5 30.5t1 28zM48 23q0 3 3 15t7.5 26t8 27t5.5 18q19 60 36 121t35 121q13 42 25 82.5t24 82.5q8 25 15.5 49.5t14.5 50.5q5 20 11 40.5
t12 40.5q4 13 7 27t9 26q8 17 23 18v1q12 0 26 -4t14 -20q0 -9 -3 -18l-49 -168q-10 -33 -21 -65.5t-21 -65.5q-8 -26 -15.5 -52.5t-15.5 -52.5t-16 -50.5t-16 -50.5q-11 -37 -21 -74t-20 -75q-3 -11 -4 -23t-4 -23q-3 -13 -9 -19t-20 -6h-13t-13.5 2t-10.5 6.5t-4 12.5z
M79 442q-1 0 -1 0.5t-1 0.5q-12 3 -20 6t-14 7t-11.5 11t-11.5 18q-12 23 -16.5 48t-4.5 50q0 21 4 54t15 64t29.5 53.5t47.5 22.5q25 0 40 -21t22 -49.5t9 -58.5t2 -48q0 -29 -5 -59.5t-18 -56.5q-10 -20 -22 -31t-36 -11h-8zM32 590q0 -12 1.5 -26.5t6.5 -27t14.5 -20.5
t26.5 -8q16 0 25.5 9.5t13.5 23.5t5 29.5t1 27.5t-1 26t-3.5 28t-7.5 27t-12 23v1q-4 5 -8.5 8.5t-10.5 3.5q-5 0 -11 -6q-22 -23 -31 -55.5t-9 -63.5z" />
    <glyph glyph-name="ampersand" unicode="&#x26;" horiz-adv-x="380" 
d="M270 2q-8 0 -12.5 4.5t-8.5 10.5q-2 2 -7 9t-11 15t-11 16t-7 12q-8 -12 -20.5 -23.5t-27 -21t-30 -15.5t-30.5 -6q-23 0 -46 13l-16 10t-14 12q-9 9 -14.5 22.5t-8.5 28t-4 29.5t-1 27q1 47 16 96.5t41 88.5q2 2 3.5 4.5t3.5 4.5l-2 6q-5 13 -9 25.5t-8 26.5
q-9 29 -17.5 56.5t-14.5 55t-9.5 55.5t-2.5 60t9 60t33 50q11 9 30 19t34 10q28 0 48 -15t32.5 -38t18.5 -49.5t6 -50.5q-1 -55 -13 -106t-44 -97q-5 -8 -11.5 -16.5t-8.5 -17.5q4 -16 15.5 -42.5t25.5 -55.5t28.5 -56t23.5 -43q7 15 13 29.5t11 29.5q2 6 4.5 13t6.5 12
q5 8 15 8q8 0 14 -7t6 -15t-5 -18l-1 -1q-8 -23 -18.5 -44l-21.5 -43q14 -18 26 -38l24 -40q7 -11 7 -19q0 -5 -4.5 -12t-10.5 -13.5t-13 -11t-12 -4.5zM82 294q-7 -13 -14 -31t-13 -38t-9.5 -39t-3.5 -34q-1 -22 2 -44t16 -41v-1q4 -3 7.5 -6.5t8.5 -6.5h1q7 -4 14 -6.5
t15 -2.5q13 0 25 5.5t22 14.5t17.5 20t13.5 22q-20 35 -39 71l-38 72q-6 11 -13 22.5t-12 22.5zM121 422q6 9 12.5 21t13 25t11 26t5.5 23q2 3 4 12.5t3.5 20.5t2.5 21t1 15q0 13 -2 36.5t-9 46t-18.5 39t-29.5 16.5q-13 0 -21 -13.5t-13 -23.5v-1q-5 -12 -6.5 -25t-2.5 -26
q-1 -41 9 -87t24 -84q5 -11 8.5 -21t7.5 -21z" />
    <glyph glyph-name="quotesingle" unicode="'" horiz-adv-x="106" 
d="M20 540q-14 0 -17.5 13t-3.5 24q0 19 0.5 37.5t0.5 37.5v71q0 11 2.5 18.5t14.5 9.5q1 0 1.5 0.5t1.5 0.5q16 0 19.5 -11.5t3.5 -23.5q0 -17 -1 -33t-1 -33v-69q0 -14 -1 -28t-20 -14z" />
    <glyph glyph-name="parenleft" unicode="(" horiz-adv-x="215" 
d="M104 -107q-6 0 -9 1q-29 10 -45.5 40t-25 67t-11 74.5t-4.5 63.5q-3 37 -3 76q0 23 -1 46.5t-1 46.5q0 45 3 89.5t6 89.5q1 14 3 38.5t6 53.5t10.5 59t16.5 54.5t24.5 40t33.5 15.5q9 0 19 -3.5t16 -11.5v-1q4 -4 4 -11q0 -4 -4 -8.5t-9.5 -8.5t-10.5 -8t-8 -7
q-4 -5 -8 -15.5t-6 -16.5q-9 -31 -16.5 -69t-12 -78t-7 -79t-2.5 -71q0 -39 0.5 -91t3.5 -105.5t9 -103.5t18 -86q4 -12 10 -23t15 -19h1q3 -3 5.5 -4.5t4.5 -5.5v-1q2 -4 2 -7q0 -11 -9 -16t-18 -5z" />
    <glyph glyph-name="parenright" unicode=")" horiz-adv-x="225" 
d="M147 334q0 -23 -1 -45t-1 -45q0 -26 -0.5 -52.5t-2.5 -52.5q-2 -29 -5.5 -59t-6.5 -59q-2 -15 -8 -37t-16.5 -42.5t-25.5 -34.5t-34 -14q-9 0 -17.5 5.5t-8.5 15.5q0 5 1 7l11 11h1q9 8 15 19t10 23q11 35 17.5 85.5t9.5 104.5t3.5 106t0.5 90q0 75 -9 150t-29 147
q-4 14 -11 26t-19 20h-1q-5 2 -10 6.5t-5 11.5q0 6 3 11v1q5 7 15 11t18 4q20 0 34.5 -15.5t25 -39.5t17.5 -54t11 -59t6 -54t3 -39q3 -38 6 -76.5t3 -76.5z" />
    <glyph glyph-name="asterisk" unicode="*" horiz-adv-x="335" 
d="M6 582q-2 5 -2 9v9v12t4 11q5 5 14 5q17 0 33 1.5t33 1.5q3 1 8 1h-1l3 1h-1q-8 19 -15.5 37t-16.5 36v2q-1 2 -2 4.5t-1 4.5q0 7 6 11.5t12 4.5q7 0 9.5 -2.5t4 -6.5t3 -7.5t4.5 -6.5q8 -27 21 -55q2 3 3 6.5t3 6.5q0 2 4 12t9.5 21.5t10.5 21.5t7 13v2q2 5 5 9.5t9 4.5
q8 0 13.5 -4.5t5.5 -12.5q0 -6 -3 -12v-1q-11 -21 -21.5 -41.5t-18.5 -42.5q22 2 43.5 5.5t43.5 3.5q18 0 20.5 -13.5t2.5 -26.5q0 -8 -5 -11t-13 -4q-20 -2 -40 -5t-40 -3h-3l2 -5q1 -3 3.5 -9t5.5 -13t5.5 -12.5t2.5 -6.5l4 -8t3 -9q3 -3 5.5 -10t2.5 -12q0 -8 -6 -12.5
t-14 -4.5q-3 0 -7 2h-1q-6 3 -6 11l-1 1q-8 21 -17.5 42t-15.5 43l-2 -1q-9 -18 -15.5 -37.5t-13.5 -37.5q-2 -5 -4 -12t-5 -12t-7.5 -9.5t-11.5 -4.5q-5 0 -10.5 5t-5.5 10q0 2 5.5 15.5t12 29.5t13 31t8.5 20h-1h-27t-27 -2q-3 0 -6 -1t-6 -1q-4 0 -8 1t-6 6l-1 1v0z" />
    <glyph glyph-name="plus" unicode="+" horiz-adv-x="387" 
d="M15 263q-8 0 -12 4.5t-5 11t-0.5 14t0.5 13.5q0 5 0.5 13.5t8.5 9.5q10 2 20.5 1.5t20.5 -0.5h85v65q0 20 -2 40.5t-2 40.5q0 10 5 20.5t16 10.5t16.5 -11t5.5 -20q0 -36 0.5 -72.5t0.5 -72.5q29 0 65 1t65 -2q13 -2 11.5 -6t2.5 -12v-20q0 -11 -2.5 -19.5t-16.5 -8.5
q-5 0 -8.5 0.5t-8.5 0.5l-108 -2v-139q0 -6 1 -12t1 -11q0 -11 -5 -20t-16 -9q-8 0 -12 4.5t-6 10.5t-2.5 13t-0.5 13q0 15 1 29.5t1 29.5q0 23 -0.5 45.5t-0.5 45.5q-7 0 -13.5 -0.5t-13.5 -0.5q-13 0 -25.5 1t-26.5 1h-36q-1 0 -2 -0.5t-2 -0.5z" />
    <glyph glyph-name="comma" unicode="," horiz-adv-x="149" 
d="M34 2q-14 0 -23 10.5t-9 23.5q0 17 15 32.5t32 15.5q10 0 17.5 -5t11.5 -13t6 -17.5t2 -18.5q0 -12 -4 -29t-9.5 -35t-12 -35.5t-10.5 -30.5l-1 -3q-4 -12 -18 -12q-7 0 -11.5 6.5t-4.5 12.5q0 7 4 21t9 29t10.5 29.5t8.5 22.5q-8 -4 -13 -4z" />
    <glyph glyph-name="hyphen" unicode="-" horiz-adv-x="309" 
d="M223 178q0 -13 -12 -13q-26 0 -40 -0.5t-25 -0.5t-25 -0.5t-40 -0.5h-60q-11 0 -14.5 5.5t-3.5 15.5t2 15t14 5q31 0 50 0.5t35.5 0.5t35.5 0.5t51 0.5q19 0 25.5 -3.5t6.5 -24.5z" />
    <glyph glyph-name="period" unicode="." horiz-adv-x="149" 
d="M36 -3q-17 0 -27 15.5t-10 30.5q0 44 43 44q17 0 28.5 -13.5t11.5 -29.5q0 -18 -13.5 -32.5t-32.5 -14.5z" />
    <glyph glyph-name="slash" unicode="/" horiz-adv-x="313" 
d="M40 -5q-7 0 -18 4.5t-11 12.5q0 4 4 18t9 30.5t10 32t7 21.5q14 45 25.5 90t25.5 90q11 37 22.5 73t22.5 72q8 25 14 50t13 50q2 7 6.5 25t11 41t14 48t14 46.5t12 36t7.5 16.5q4 3 9 3q6 0 16.5 -5.5t10.5 -12.5q0 -3 -5 -20t-12 -38t-13 -40t-8 -26l-47 -164
q-8 -26 -13.5 -52.5t-14.5 -52.5q-11 -32 -20 -64.5t-18 -64.5q-8 -29 -16 -58.5t-18 -58.5q-4 -11 -8 -21.5t-7 -21.5q-1 -5 -3 -12.5t-4 -16t-4 -15.5t-4 -10q-4 -6 -10 -6z" />
    <glyph glyph-name="zero" unicode="0" horiz-adv-x="318" 
d="M1 411q0 19 0.5 38t1.5 38q1 17 1 34.5t2 34.5q2 25 8 60t19 67t35 54.5t55 22.5h6q23 0 38.5 -12.5t25.5 -31t16 -40t10 -39.5q11 -51 16 -101.5t5 -102.5q0 -34 -0.5 -67t-0.5 -67q0 -5 -1 -10t-1 -10q-2 -24 -5.5 -65t-11.5 -83.5t-22.5 -77.5t-38.5 -46
q-14 -7 -31 -7q-30 0 -51 24.5t-35 63.5t-22 86.5t-12.5 93.5t-5.5 84t-1 59zM139 696q-23 0 -32 -10.5t-14 -30.5q-8 -27 -12.5 -60t-6.5 -67.5t-3 -68t-1 -61.5q0 -34 1 -71.5t5 -75t11.5 -74t20.5 -67.5q2 -5 5.5 -12.5t8.5 -15t11 -13t12 -5.5q8 0 15.5 17.5t13.5 40.5
t9.5 44t5.5 29q3 16 5 39t3 48t1.5 48.5t0.5 40.5q0 65 -3 131q0 8 -1.5 25.5t-4.5 39t-7.5 44.5t-10.5 42t-14.5 31t-18.5 12z" />
    <glyph glyph-name="one" unicode="1" horiz-adv-x="229" 
d="M57 269q0 50 1 98.5t1 98.5q0 36 0.5 72.5t1.5 72.5q1 17 1 33.5v33.5q-3 -5 -7.5 -13.5t-10.5 -17t-12 -15t-11 -6.5q-9 0 -14 6.5t-5 14.5q0 4 7.5 17.5t17 29t19 29t13.5 19.5q5 7 11 11t15 4t25 -2t22 -9q5 -6 6.5 -14.5t1.5 -16.5q0 -68 1 -135t1 -135
q0 -27 -1.5 -54t-1.5 -54q0 -17 1 -33t1 -33q0 -43 1 -86l2 -86q0 -18 1 -35.5t1 -35.5q0 -20 -10 -25.5t-28 -5.5h-16.5t-15.5 2q-9 2 -12 7t-4 14q-3 30 -3 59v190v0z" />
    <glyph glyph-name="two" unicode="2" horiz-adv-x="293" 
d="M1 20q0 8 6 32.5t14 53.5t15.5 55.5t10.5 37.5q26 92 47.5 184t39.5 186q5 27 10 55.5t5 56.5q0 6 -2 15t-10 9q-11 0 -21 -12t-19 -28t-15.5 -32t-9.5 -25q-2 -8 -7.5 -19t-16.5 -11q-8 0 -12 5.5t-4 13.5q0 20 12 48t30.5 53.5t41.5 43.5t45 18q14 0 25.5 -7t19.5 -18
q11 -15 13.5 -35t2.5 -38q0 -48 -7.5 -100t-18.5 -100q-2 -9 -3.5 -17.5t-3.5 -17.5q-11 -71 -30.5 -141t-39.5 -139q-5 -20 -11.5 -40t-11.5 -40q-2 -6 -3.5 -12.5t-3.5 -12.5l74 -1q6 0 15.5 0.5t18.5 -1t15 -6t6 -14.5q0 -8 -4 -11.5t-10 -5.5h-12.5t-31 -0.5t-40.5 -1
t-42 -1t-34.5 -0.5h-18.5q-10 0 -17 4.5t-7 15.5z" />
    <glyph glyph-name="three" unicode="3" horiz-adv-x="305" 
d="M109 0q-19 0 -38 6.5t-34.5 18.5t-25 29t-9.5 38q0 8 2 13.5t12 5.5q13 0 18.5 -9.5t9.5 -21.5t11 -21.5t24 -9.5q16 0 28.5 11.5t22 29.5t15.5 40t10 44t6 41t2 31q0 15 -1 29.5t-3 29.5q-2 13 -4.5 23.5t-7.5 18t-13.5 13t-22.5 9.5q-3 1 -8 1t-9.5 -0.5t-9.5 -0.5
q-11 0 -21 9t-10 21q0 7 4 14.5t10 14.5t12 13.5t10 12.5q5 7 9 13.5t8 14.5q8 16 16 38.5t14 46.5t10 47t4 41q0 9 -2 18.5t-6.5 18t-11.5 14t-18 5.5q-13 0 -22.5 -12.5t-15.5 -29.5t-9 -34.5t-4 -27.5q-1 -8 -3 -16t-13 -8q-17 0 -22 16q0 21 5.5 49t17.5 52.5t30.5 42
t44.5 17.5q25 0 43.5 -8.5t30.5 -23.5t17.5 -35.5t5.5 -43.5q0 -21 -4 -51.5t-11.5 -62.5t-17.5 -61t-21 -46q4 -2 7.5 -3t6.5 -3q19 -11 30.5 -30t18 -41t9 -45t2.5 -43q0 -29 -5.5 -74t-19.5 -87t-39 -72t-65 -30z" />
    <glyph glyph-name="four" unicode="4" horiz-adv-x="267" 
d="M42 271q-15 0 -27 4.5t-12 23.5v7q1 12 4 25t5 25q10 50 18 104q11 70 25.5 138.5t28.5 137.5q2 8 4.5 14t11.5 8q5 1 9 1h9q17 0 27.5 -3t15.5 -22q2 -7 3 -36t1 -64v-66.5v-43.5v-208q15 0 25.5 -2t10.5 -22q0 -18 -10.5 -20.5t-24.5 -2.5v-14q0 -51 1.5 -102.5
t3.5 -102.5q0 -5 0.5 -11t0.5 -11q0 -10 -3.5 -19.5t-15.5 -9.5q-5 0 -9 0.5t-9 0.5h-20t-12.5 3t-6.5 9.5t-2 19.5v240v-1h-52zM93 317q0 57 1 114.5t1 114.5v67q-10 -45 -18 -90t-14 -90q-4 -29 -9 -58t-9 -58h48z" />
    <glyph glyph-name="five" unicode="5" horiz-adv-x="294" 
d="M183 760q11 0 20 -3t9 -17q0 -25 -23 -25q-26 0 -52.5 0.5t-52.5 0.5q-2 -45 -3.5 -89t-1.5 -89v-18.5t1 -18.5q8 0 16 1t16 -1q25 -4 44 -17.5t32.5 -33t21.5 -42.5t11 -46q2 -13 2.5 -25t2.5 -25q1 -11 2 -23t1 -23q0 -23 -3.5 -45.5t-7.5 -45.5q-4 -20 -8.5 -40
t-11.5 -40q-6 -15 -15.5 -32t-22 -31t-28.5 -23t-34 -9q-9 0 -17.5 2.5t-16.5 6.5q-20 9 -30.5 25.5t-15.5 37t-7 42t-3 39.5q-1 5 -1.5 11t-0.5 11q0 7 4 13t12 6q12 0 15.5 -5.5t5.5 -16.5q1 -12 1.5 -33t4 -42t12.5 -36.5t27 -15.5h4q11 0 19 15.5t13.5 39.5t9.5 52.5
t6 55.5t3 48.5t1 30.5q0 28 -4 51q-2 12 -4.5 30t-8.5 34t-16.5 27.5t-27.5 11.5h-25h-19t-18 2t-13 8.5t-5 19.5q0 8 0.5 15.5t1.5 15.5q1 9 1.5 30t1 47.5t1 55.5t1 54t2 42t4.5 20t8.5 4.5t12 2.5t12.5 1h10h1l-2 -1l5 2h120z" />
    <glyph glyph-name="six" unicode="6" horiz-adv-x="298" 
d="M177 735q0 -11 -4 -22l-8 -22q-5 -13 -8 -26t-7 -26q-7 -22 -14 -43.5t-13 -44.5q-11 -41 -19 -82t-16 -83q23 2 47 -6.5t43 -22.5q16 -12 26.5 -30.5t17 -40t9 -44t2.5 -41.5q0 -23 -3.5 -57.5t-14.5 -66.5t-30.5 -54.5t-50.5 -22.5q-10 0 -23.5 1.5t-22.5 6.5
q-20 11 -34.5 33.5t-24 51.5t-15 62.5t-8 66t-3 61t-0.5 49.5q0 23 2.5 46.5t6.5 46.5l4 30t6 30q11 43 23 85.5t26 84.5q6 17 12.5 34t12.5 34q1 3 3 9.5t5 12.5t6.5 10.5t8.5 4.5h12q6 0 14 -0.5t15 -3t12 -7.5t5 -14zM141 45q2 0 3 1t3 2q14 10 23 28t14 39.5t7 43
t2 37.5q0 10 -1 26t-3.5 32t-7 30.5t-11.5 22.5q-14 16 -31.5 25.5t-38.5 9.5q-2 0 -8.5 -0.5t-7.5 -1.5q-2 -1 -3 -9t-1.5 -18t-0.5 -18.5v-11.5q0 -48 3 -95t23 -92q5 -9 12.5 -25t15.5 -22q2 -1 4 -2.5t4 -1.5z" />
    <glyph glyph-name="seven" unicode="7" horiz-adv-x="340" 
d="M29 701q-11 0 -18.5 5.5t-7.5 17.5q0 8 4.5 11.5t10.5 5.5q8 3 18 3t19 2q44 6 87 10.5t88 4.5q7 0 15.5 -2.5t16 -7t12.5 -11t5 -14.5q0 -6 -1.5 -12t-3.5 -12q-13 -54 -34 -105.5t-35 -104.5q-11 -42 -22 -83t-21 -83q-8 -32 -17 -63t-16 -63q-7 -34 -14.5 -68
t-14.5 -68q-2 -8 -2 -14.5t-1 -14.5q-2 -13 -6.5 -20t-12 -10t-16.5 -3.5t-20 -0.5q-13 0 -19 9.5t-6 20.5q0 22 5 42.5t10 41.5q8 34 14.5 67.5t14.5 67.5q30 119 65.5 235.5t82.5 230.5h-28q-29 0 -57.5 -3.5t-57.5 -7.5q-9 -2 -18.5 -3t-18.5 -1z" />
    <glyph glyph-name="eight" unicode="8" horiz-adv-x="315" 
d="M124 -2q-32 0 -55 12.5t-37.5 32.5t-21.5 46.5t-7 55.5q0 32 9 68.5t22.5 73.5t29 72.5t27.5 65.5q-12 15 -23 38t-20 48.5t-14 50.5t-5 44q0 27 8 54.5t23.5 49t38.5 35t54 13.5q18 0 33.5 -7.5t26.5 -20t17.5 -28.5t6.5 -34q0 -12 -3.5 -24t-5.5 -24q-9 -42 -21 -82.5
t-25 -81.5q-5 -15 -11 -30t-11 -30q12 -20 22 -47t16.5 -56t10 -57.5t3.5 -51.5v-38q0 -18 -3.5 -43t-12.5 -48.5t-24.5 -40t-38.5 -16.5h-9zM110 470q8 18 17 44.5t16.5 55t12.5 55.5t5 47q0 12 -2.5 20t-12.5 16q-2 1 -3.5 2.5t-3.5 1.5q-20 0 -33.5 -10.5t-21.5 -26.5
t-11 -35t-3 -35q0 -36 10.5 -70.5t29.5 -64.5zM139 341q-11 -29 -23.5 -60.5t-23 -63.5t-17.5 -64t-7 -63q0 -15 1.5 -24.5t15.5 -19.5q6 -5 11 -6t13 -1h12q17 0 27.5 15t16 35.5t7 42t1.5 33.5q0 43 -8.5 90t-25.5 86z" />
    <glyph glyph-name="nine" unicode="9" horiz-adv-x="315" 
d="M152 760q12 0 23.5 -2t22.5 -7q29 -14 42 -31.5t13 -50.5t-8 -66.5t-14 -65.5q-16 -88 -28 -174t-29 -174q-4 -18 -6.5 -36t-5.5 -36q-3 -20 -7.5 -40t-6.5 -40q-2 -16 -7 -26.5t-24 -10.5q-7 0 -15.5 1t-15.5 4t-11.5 9t-4.5 15q0 14 4 26.5t6 26.5l10 64q12 78 26 154
t27 154q-10 -9 -23 -16t-27 -7q-25 0 -42.5 12.5t-28 32t-15.5 42t-5 43.5q0 35 8 70.5t26 64t46.5 46.5t69.5 18zM135 717q-7 0 -13.5 -2.5t-12.5 -5.5q-22 -12 -35 -29t-20 -37.5t-9.5 -43t-3.5 -44.5v-3q-1 -11 0 -22t6 -22q6 -14 17.5 -27t28.5 -13q10 0 20 11.5
t18.5 26.5t15 30.5t9.5 23.5q10 26 17.5 56t7.5 58q0 23 -11.5 33t-34.5 10z" />
    <glyph glyph-name="colon" unicode=":" horiz-adv-x="134" 
d="M36 392q-17 0 -27 15.5t-10 30.5q0 44 43 44q17 0 28.5 -13.5t11.5 -29.5q0 -18 -13.5 -32.5t-32.5 -14.5zM36 -3q-17 0 -27 15.5t-10 30.5q0 44 43 44q17 0 28.5 -13.5t11.5 -29.5q0 -18 -13.5 -32.5t-32.5 -14.5z" />
    <glyph glyph-name="semicolon" unicode=";" horiz-adv-x="165" 
d="M36 392q-17 0 -27 15.5t-10 30.5q0 44 43 44q17 0 28.5 -13.5t11.5 -29.5q0 -18 -13.5 -32.5t-32.5 -14.5zM34 5q-14 0 -23 10.5t-9 23.5q0 17 15 32.5t32 15.5q10 0 17.5 -5t11.5 -13t6 -17.5t2 -18.5q0 -14 -4.5 -30.5t-10.5 -33.5l-12 -34t-9 -32v1q0 -7 -6.5 -11.5
t-12.5 -4.5q-7 0 -11.5 6.5t-4.5 12.5q0 7 4 20.5t9.5 29t10.5 30t8 22.5q-8 -4 -13 -4z" />
    <glyph glyph-name="less" unicode="&#x3c;" horiz-adv-x="394" 
d="M238 22q-13 0 -23 9q-8 7 -13.5 15t-12.5 16q-32 38 -62 75t-62 75q-8 11 -17 20.5t-18 19.5q-15 16 -21 29t-6 35q0 19 13 31q11 10 23.5 18t24.5 16q26 17 51 34.5t50 36.5q20 15 39.5 31t39.5 32q4 3 10.5 9t14 12.5t14.5 11t12 4.5q10 0 14.5 -8t5.5 -16
q-8 -17 -27.5 -30.5t-33.5 -25.5q-32 -29 -66 -54t-69 -49q-24 -16 -46 -37q14 -20 28.5 -39.5t30.5 -38.5q6 -7 19.5 -22.5t31 -35t35.5 -41t33.5 -41t25 -34.5t9.5 -21t-5.5 -13t-13 -12t-15.5 -8.5t-14 -3.5z" />
    <glyph glyph-name="equal" unicode="=" horiz-adv-x="309" 
d="M223 281q0 -13 -12 -13q-26 0 -40 -0.5t-25 -0.5t-25 -0.5t-40 -0.5h-60q-11 0 -14.5 5.5t-3.5 16.5q0 10 2 14.5t14 4.5q31 0 50 0.5t35.5 0.5t35.5 0.5t51 0.5q19 0 25.5 -3.5t6.5 -24.5zM223 178q0 -13 -12 -13q-26 0 -40 -0.5t-25 -0.5t-25 -0.5t-40 -0.5h-60
q-11 0 -14.5 5.5t-3.5 15.5t2 15t14 5q31 0 50 0.5t35.5 0.5t35.5 0.5t51 0.5q19 0 25.5 -3.5t6.5 -24.5z" />
    <glyph glyph-name="greater" unicode="&#x3e;" horiz-adv-x="394" 
d="M315 316q0 -22 -6 -35t-21 -29q-9 -10 -17.5 -20t-16.5 -20q-32 -38 -62.5 -75t-62.5 -75q-7 -8 -12.5 -16t-13.5 -15q-11 -9 -23 -9q-6 0 -14 3.5t-15.5 8.5t-13 12t-5.5 13t9.5 21t25 34t33.5 41t35.5 41.5t31 35t19.5 22.5q16 19 30.5 38.5t28.5 39.5q-11 10 -22 19.5
t-23 17.5q-35 24 -69 49t-66 54q-14 13 -34 26t-28 30q2 8 6 16t14 8q4 0 11.5 -4.5t15 -11t14.5 -12.5t11 -9q20 -16 39 -32t39 -31q25 -19 50 -36.5t51 -34.5q12 -8 24.5 -16t23.5 -18q13 -12 13 -31z" />
    <glyph glyph-name="question" unicode="?" horiz-adv-x="321" 
d="M98 89q17 0 28.5 -12t11.5 -29q0 -16 -11.5 -33.5t-28.5 -17.5q-16 0 -28 13t-12 29q0 17 11 33.5t29 16.5zM4 596q0 23 4.5 49t16 49t29.5 39.5t45 21.5q8 2 17 2h17q67 0 98 -36t31 -101q0 -21 -3.5 -41.5t-11.5 -40.5q-10 -23 -25 -49t-38 -40q-12 -7 -24.5 -11.5
t-25.5 -9.5v-1q0 -60 3 -118.5t3 -118.5q0 -9 -5 -14.5t-12.5 -8.5t-16 -4t-15.5 -1q-16 0 -23 10q-4 5 -4.5 9t-0.5 9q0 20 -0.5 39.5t-0.5 39.5q0 24 0.5 47.5t0.5 47.5q0 18 -2 36t-2 36v15t2 15q3 14 18 16.5t33.5 8.5t38 24t33.5 64q6 19 6 39q0 22 -3.5 41t-23.5 33
t-44 14t-37.5 -9.5t-21 -24t-10.5 -31t-5 -31t-6 -24t-12 -9.5q-11 0 -17 3.5t-6 15.5z" />
    <glyph glyph-name="at" unicode="@" horiz-adv-x="498" 
d="M4 347q0 29 3 57.5t7 57.5q7 51 19.5 104t39.5 98q8 14 19 25t23 22q15 14 28 23.5t27 15t29.5 8t36.5 2.5q46 0 79 -22.5t54.5 -57t31.5 -76.5t10 -81q0 -28 -3.5 -69.5t-12.5 -84t-25 -78.5t-41 -53q-8 -5 -16.5 -6.5t-16.5 -1.5q-26 0 -38 12t-22 34q-5 -8 -11 -18
t-13 -18.5t-16 -14.5t-20 -6q-5 0 -10 1t-10 3q-22 9 -35.5 26t-20.5 38t-9 44t-2 44q0 26 3.5 61t15 67t32.5 54.5t56 22.5q14 0 31 -5q19 -6 29 -18t14.5 -26.5t5 -31.5t1.5 -34q3 -48 3 -97v-19t1 -22.5t3.5 -21t7.5 -15.5q6 5 10.5 15t7.5 18q17 41 24 91t7 94
q0 36 -7 71.5t-23 67.5q-11 21 -20 33t-31 22q-10 5 -20 8t-21 3q-23 0 -43 -12t-35 -28l-14 -14t-12 -15q-20 -29 -33 -68t-20.5 -81t-10.5 -83.5t-3 -76.5q0 -30 3 -63.5t10.5 -66.5t20 -63.5t30.5 -55.5q14 -20 33.5 -34.5t45.5 -14.5q10 0 21 4t21.5 9.5t19.5 9.5t17 4
t12.5 -6t4.5 -14q0 -11 -12.5 -19.5t-29.5 -14t-34 -8t-26 -2.5q-37 0 -65 18t-48 47.5t-33 66.5t-21 75.5t-11 75t-3 64.5zM221 448q0 13 -0.5 26t-0.5 26q0 12 0.5 19.5t-2 12t-9 6t-20.5 1.5q-22 0 -33.5 -21t-17 -49.5t-6.5 -57t-1 -43.5q0 -21 2.5 -46.5t14.5 -43.5
q3 -5 9 -11t11 -6q6 0 11 5t8 10q23 30 28.5 66.5t5.5 73.5v32z" />
    <glyph glyph-name="A" unicode="A" horiz-adv-x="318" 
d="M3 21q0 12 1.5 24.5t3.5 24.5q5 38 9 75t8 75q11 100 21 197.5t21 197.5q4 30 7 60.5t7 60.5q3 21 14.5 23t28.5 2q13 0 28 -1t19 -17q5 -21 8 -43t6 -43q7 -45 12.5 -90.5t12.5 -90.5q5 -32 7.5 -63t6.5 -63q7 -51 13.5 -101.5t13.5 -101.5q3 -20 6 -41t6 -41
q2 -12 4.5 -24t2.5 -25q0 -8 -7 -11t-14 -3q-2 0 -6.5 0.5t-6.5 2.5q-5 4 -5.5 7.5t-2.5 8.5q-7 31 -11 61.5t-8 62.5q-5 40 -10.5 79.5t-10.5 79.5q-18 -1 -35.5 -1h-35.5q-5 -42 -8.5 -83.5t-7.5 -83.5q-2 -14 -2.5 -26.5t-1.5 -26.5t-2.5 -26.5t-1.5 -26.5q0 -3 0.5 -6
t0.5 -7q0 -14 -13.5 -15t-23.5 -1h-15t-18 1.5t-15 5.5t-6 13zM183 343q-8 69 -18 137t-19 137q-7 -69 -12.5 -136.5t-13.5 -136.5q14 0 27.5 -0.5t27.5 -0.5h8z" />
    <glyph glyph-name="B" unicode="B" horiz-adv-x="341" 
d="M5 273q0 75 2.5 150.5t5.5 150.5q1 11 1 21v21q0 28 -0.5 55.5t1.5 55.5q1 9 2.5 16t10.5 12q4 2 12.5 3t18 1.5t18 0.5h13.5q28 0 49.5 -4t38 -14t29 -28t21.5 -45q8 -22 12.5 -45.5t4.5 -46.5q0 -41 -11.5 -84t-41.5 -72q-11 -11 -22.5 -20t-22.5 -19q-2 -1 -2.5 -2
t-2.5 -2q22 -11 39.5 -23.5t32.5 -32.5t27.5 -41t17.5 -46q6 -33 6 -67q0 -47 -28 -88.5t-71 -61.5q-26 -12 -55.5 -15t-58.5 -3t-38 17t-9 43v213zM102 717q0 -77 -1.5 -153t-1.5 -153v-4q15 10 30 20.5t28 23.5q24 26 34 58t10 67q0 21 -4 45.5t-14 46t-27 35.5t-44 14
h-10zM214 183q0 25 -7.5 48.5t-18.5 45.5q-14 26 -33 40t-45 25q-6 3 -12 3q0 -60 -1 -118t-2 -118v-6v-27t1 -27h2q8 -1 17.5 3t17.5 7q11 5 19 9t17 12q28 23 36.5 45t8.5 58z" />
    <glyph glyph-name="C" unicode="C" horiz-adv-x="334" 
d="M168 759q46 0 72 -28t26 -73q0 -6 -1 -14.5t-3.5 -17t-7 -14.5t-12.5 -6q-13 0 -16.5 6t-3.5 18q0 7 0.5 20.5t-1 26.5t-7 23t-16.5 10q-12 0 -21 -6t-16 -15.5t-12 -20t-9 -19.5q-3 -7 -7 -14t-7 -14q-8 -17 -15 -44t-12 -56.5t-7.5 -58t-2.5 -47.5q0 -21 1 -52
t3.5 -66.5t7.5 -73.5t12.5 -71.5t18.5 -60t27 -39.5q9 -7 17 -7q12 0 20 11t14 24.5t12 24.5t15 11q11 0 16 -8.5t5 -17.5q0 -17 -7 -33.5t-19 -29t-27.5 -20.5t-32.5 -8q-8 0 -14.5 2t-13.5 4q-17 5 -32.5 10.5t-29.5 18.5q-38 33 -50 80q-17 66 -23 132t-6 133
q0 38 4.5 75.5t9.5 75.5q4 24 7.5 47.5t11.5 46.5q7 22 18.5 46t28 44t37.5 32.5t48 12.5z" />
    <glyph glyph-name="D" unicode="D" horiz-adv-x="323" 
d="M51 761q18 0 34 -11.5t30 -22.5q27 -23 52.5 -47.5t42.5 -56.5q17 -33 29.5 -62.5t20 -59.5t11 -62t3.5 -69q0 -55 -7 -103t-27 -99q-15 -41 -35 -79.5t-58 -62.5q-22 -14 -39.5 -19.5t-43.5 -5.5q-13 0 -28 6t-20 19q-3 7 -5.5 42t-4 84.5t-2.5 107t-1.5 110t-1 92.5
t-0.5 56v46.5t1 66t3 64.5t5 41q4 13 16 19t25 6zM77 678q0 -39 2.5 -78.5t4.5 -78.5q6 -188 6 -376q0 -8 -0.5 -15t-0.5 -15q0 -14 1 -26.5t2 -26.5q22 3 40 20t32 39.5t23.5 47t15.5 43.5q18 55 21 115q1 12 1 23.5v23.5q0 65 -16 125t-51 115q-8 12 -18 23l-20 22
q-10 10 -20.5 17.5t-21.5 15.5q-1 -5 -1 -14z" />
    <glyph glyph-name="E" unicode="E" 
d="M217 735q0 -5 -1 -9.5t-4 -7.5q-5 -5 -11 -5q-28 0 -56 -0.5t-56 -0.5q4 -77 3 -153.5t-1 -152.5q9 -1 17.5 -1h17.5q11 0 22 1t22 1t17.5 -5.5t6.5 -16.5q0 -16 -17 -19q-20 -5 -42.5 -4.5t-43.5 0.5v-315h90q8 0 19.5 0.5t18.5 -3.5l3 -6q0 -5 0.5 -9.5t0.5 -9.5
q0 -19 -17 -19h-187q-6 0 -10 1.5t-6 7.5q-2 26 -2 50.5v50.5q0 48 1 96t1 96q0 68 0.5 134.5t0.5 134.5q0 39 -1.5 78.5t-1.5 78.5q0 14 9 22.5t23 8.5q31 0 61 0.5t61 0.5q11 0 22 -0.5t22 -0.5q5 0 11 -1t6 -8q0 -4 0.5 -7.5t0.5 -7.5z" />
    <glyph glyph-name="F" unicode="F" horiz-adv-x="313" 
d="M62 755q23 0 46 -1t46 -1t47 3q8 2 16 3t16 1q25 0 25 -25q0 -20 -20 -21q-25 -2 -50.5 -3t-50.5 -1q-8 0 -17 0.5t-17 0.5h-11.5t-10.5 -2q-1 -51 -1 -100.5v-100.5q0 -26 0.5 -53t0.5 -53h21q24 0 48 0.5t48 0.5q23 0 23 -21q0 -16 -17 -19q-14 -2 -28 -3t-28 -1h-54
q-2 0 -6.5 0.5t-6.5 -0.5q0 -84 2.5 -166.5t2.5 -166.5q0 -22 -11.5 -24t-28.5 -2h-17q-11 0 -16.5 9.5t-6.5 19.5q-2 20 -2 39v39v258q0 88 1 175.5t1 175.5q0 22 19 30.5t37 8.5z" />
    <glyph glyph-name="G" unicode="G" horiz-adv-x="351" 
d="M235 612q-11 0 -15.5 7t-6.5 17.5t-3 23t-5.5 23t-13 17.5t-25.5 7q-8 0 -12 -4t-9 -10q-19 -25 -30.5 -68t-18 -91t-8.5 -94.5t-2 -77.5q0 -23 1.5 -45.5t3.5 -45.5q2 -21 4.5 -56.5t10.5 -70t24.5 -59.5t47.5 -25q10 0 17.5 16t12 36.5t6.5 40.5t2 28q0 32 -2 63t-5 63
q-1 9 -1.5 18.5t-2.5 18.5q-15 0 -29 -4.5t-29 -4.5q-11 0 -21.5 9t-10.5 21q0 11 7.5 16.5t17.5 8.5t21 4t19 2q8 2 15.5 3t15.5 1q29 0 37.5 -15t8.5 -41q0 -20 3 -39.5t5 -39.5q3 -45 3 -90q0 -34 -4 -65.5t-17.5 -56t-38.5 -39t-67 -14.5q-19 0 -38 5.5t-33 18.5
q-26 23 -39.5 68.5t-20 97t-7.5 102t-1 83.5q0 38 0.5 83t5.5 90.5t17.5 87.5t35.5 73q17 23 39 37t51 14q17 0 34.5 -5.5t31.5 -13.5q23 -13 33.5 -38.5t10.5 -51.5q0 -14 -4.5 -26.5t-21.5 -12.5z" />
    <glyph glyph-name="H" unicode="H" horiz-adv-x="350" 
d="M66 756q20 0 24 -11t4 -28q0 -64 1 -128t1 -128q0 -9 -0.5 -18.5t0.5 -18.5q11 -1 21.5 -1h21.5q18 0 36.5 1t36.5 1q2 0 4.5 -0.5t4.5 0.5q-1 78 -2.5 156t-1.5 156q0 9 3 15.5t14 6.5q16 0 22.5 -9.5t7.5 -23.5q3 -56 4 -111t1 -111q0 -16 -1 -31.5t-1 -31.5
q0 -78 1 -156t1 -156q0 -27 2.5 -53.5t2.5 -53.5q0 -7 -3.5 -13.5t-11.5 -6.5q-5 0 -10 -1.5t-10 -1.5q-15 0 -15 15q0 16 1 31.5t1 31.5q0 62 -2.5 123.5t-2.5 123.5v26.5t-1 26.5q-32 -1 -62.5 -1h-62.5v-17q0 -63 1 -125.5t1 -125.5q0 -9 -0.5 -18.5t-0.5 -18.5v-46
q0 -19 -4.5 -22t-22.5 -3q-7 0 -13 -0.5t-13 -0.5t-13.5 1t-13.5 3l-5 5q-2 11 -2.5 22t-0.5 22q0 57 -1 113.5t-1 113.5q0 30 0.5 60t0.5 60q0 20 -1.5 41t-1.5 41q0 57 -0.5 113t-0.5 113q0 5 0.5 10.5t0.5 10.5q0 16 4.5 20t19.5 6q10 2 19 2h19z" />
    <glyph glyph-name="I" unicode="I" horiz-adv-x="358" 
d="M250 713q-17 0 -34.5 0.5t-34.5 0.5v-44q0 -45 3 -88t3 -88q1 -115 1.5 -229.5t0.5 -229.5q19 0 40.5 1t40.5 -4q9 -2 13 -6t4 -14q0 -7 -5 -12q-6 -5 -15 -5q-26 0 -52 -0.5t-52 -0.5q-29 0 -57.5 2.5t-57.5 2.5q-7 0 -13 -0.5t-13 -0.5t-18.5 1.5t-11.5 12.5
q0 17 11 20.5t25 3.5q18 0 35.5 -0.5t35.5 -0.5v24q0 122 -1 242.5t-6 242.5q-2 43 -3 85t-2 85h-19.5h-23.5t-22.5 0.5t-17.5 2.5q-17 4 -17 21q0 8 5.5 12t13.5 4h111q9 0 17.5 -1t17.5 -1q19 0 37.5 -1t37.5 -1q4 0 13.5 1t18.5 0t16 -4t7 -10q0 -17 -9 -20.5t-23 -3.5z
" />
    <glyph glyph-name="J" unicode="J" horiz-adv-x="363" 
d="M20 290q9 0 13 -6t6 -14q4 -19 4 -56t3.5 -74t16.5 -64.5t44 -27.5q26 0 38.5 14.5t16.5 38.5q5 29 6 58t1 58q0 24 1 47.5t1 47.5q0 103 -4.5 203.5t-6.5 203.5q-16 -1 -33.5 -0.5t-32.5 2.5q-19 3 -19 22q0 8 6.5 12.5t13.5 4.5q5 0 8 -1h81q16 0 31 -1t31 -2
q6 0 19 -0.5t26.5 -3t24 -7t10.5 -13.5t-4 -15.5t-14 -6.5q-17 0 -33 2.5t-33 2.5h-1q0 -56 3.5 -111.5t4.5 -111.5q1 -73 2 -145t1 -145q0 -21 -1 -49t-6.5 -55t-17.5 -50t-33 -34q-25 -14 -53 -14q-16 0 -32 1.5t-31 7.5q-30 11 -46 43t-23 71t-8 78.5t-1 66.5q0 9 5 15.5
t15 6.5z" />
    <glyph glyph-name="K" unicode="K" horiz-adv-x="358" 
d="M94 734q0 -75 -1 -148t-1 -148q14 24 26 49.5t25 50.5q13 24 24.5 49t24.5 49q2 3 3.5 6l3.5 7q10 23 19 46.5t20 46.5q3 6 7 11.5t12 5.5t18 -5.5t10 -14.5q0 -6 -7 -24t-18.5 -42t-25 -51.5t-26 -53t-23 -45.5t-14.5 -30q-3 -7 -5.5 -13t-5.5 -13q20 -51 40 -100.5
t37 -100.5q14 -42 25 -83.5t24 -83.5l5.5 -16.5t7 -22.5t6 -22.5t2.5 -15.5q0 -11 -8 -17t-18 -6q-7 0 -11.5 4.5t-6.5 9.5q-3 8 -5 15.5t-4 15.5q-4 14 -8 27.5t-8 27.5q-20 79 -46.5 161.5t-58.5 157.5q-10 -17 -21 -34t-19 -35q1 -36 0.5 -71.5t0.5 -71.5q2 -43 4 -85
t2 -85q0 -3 -1 -5.5t-1 -5.5q0 -13 -6 -17t-18 -4q-13 0 -25.5 -0.5t-25.5 -0.5q-19 0 -19 20q0 14 0.5 28t0.5 28q0 126 -1.5 250.5t-1.5 250.5q0 40 1.5 79.5t1.5 79.5q0 14 7.5 16.5t18.5 2.5t20.5 -0.5t20.5 -0.5q14 0 18 -4.5t4 -18.5z" />
    <glyph glyph-name="L" unicode="L" horiz-adv-x="264" 
d="M4 29q0 67 -0.5 134t-0.5 134q0 98 1 195.5t1 195.5q0 14 -0.5 26.5t0.5 26.5q0 8 2 13.5t12 5.5q7 0 13.5 0.5t12.5 0.5q8 0 19 -1t16 -8q1 -2 1.5 -20t0.5 -40.5v-42.5v-24q0 -42 -0.5 -83.5t-0.5 -83.5q0 -27 1 -53.5t1 -53.5q0 -30 -1 -59.5t-1 -59.5v-133
q0 -16 0.5 -31t1.5 -31h93q6 0 11.5 0.5t11.5 0.5q13 0 17 -6.5t4 -18.5q0 -8 -7.5 -10.5t-13.5 -2.5q-20 0 -41 0.5t-41 0.5q-17 0 -32.5 -0.5t-32.5 -0.5q-10 0 -19 -0.5t-15.5 2t-10 8.5t-3.5 19z" />
    <glyph glyph-name="M" unicode="M" horiz-adv-x="422" 
d="M64 756h9.5t9.5 -1q9 -2 14.5 -15.5t8.5 -31t4.5 -34t2.5 -24.5l7 -48q9 -63 18 -125t20 -125q8 -46 17 -91.5t16 -91.5q13 66 26 132.5t22 133.5q5 39 10.5 78.5t10.5 78.5q5 32 9 63.5t8 63.5q1 8 1.5 13.5t5.5 12.5q6 9 19 9q17 0 20.5 -15.5t3.5 -28.5
q0 -72 6.5 -142t8.5 -141q1 -22 2.5 -43.5t2.5 -43.5q2 -42 2.5 -82.5t2.5 -82.5q2 -30 3.5 -60t3.5 -60q1 -10 2 -19.5t1 -19.5q0 -12 -3.5 -16t-14.5 -4q-12 0 -16.5 4t-6.5 16t-1.5 24.5t-0.5 24.5q-1 25 -2 49t-3 49q-5 93 -9.5 184.5t-9.5 184.5q-13 -81 -24.5 -161
t-26.5 -160q-6 -32 -13.5 -63t-13.5 -63q-2 -11 -7.5 -21t-18.5 -10t-20 10t-9 21q-8 33 -12.5 67t-10.5 68q-8 46 -18 91.5t-17 91.5l-9 63q0 -32 1 -64.5t1 -64.5q0 -63 -3 -125t-3 -125v-16.5v-24t-1 -23t-3 -12.5q-6 -8 -16 -8.5t-18 -0.5t-15 -1t-15 -1q-17 0 -19.5 13
t-2.5 26q0 54 2 107t4 107q2 56 2.5 111t2.5 111q2 57 3 113.5t1 113.5v30t4 16t14 6.5t30 1.5z" />
    <glyph glyph-name="N" unicode="N" horiz-adv-x="376" 
d="M2 26q0 51 1.5 101.5t1.5 101.5q0 139 3 279q2 57 4.5 112.5t2.5 112.5q0 12 4 19t18 7h9.5h14t14 -0.5t8.5 -1.5q10 -4 13 -11t5 -16q7 -28 14 -55t13 -55q24 -106 49.5 -210.5t53.5 -209.5q2 -9 5 -18.5t6 -18.5q0 2 0.5 5t0.5 5v150q0 63 0.5 126.5t0.5 126.5
q0 38 -2 75.5t-2 75.5q0 13 6 22t20 9q15 0 18.5 -14t3.5 -25q0 -32 -1 -64.5t-1 -64.5q0 -20 1 -39.5t1 -39.5q0 -108 -1.5 -215t-1.5 -215v-25q0 -7 0.5 -16.5t-1 -18.5t-6.5 -15.5t-15 -6.5q-9 0 -14.5 5t-9 12.5t-5.5 16t-4 14.5q-16 60 -33.5 119.5t-33.5 119.5
q-20 74 -36.5 147.5t-34.5 148.5q-3 -122 -3 -245v-139q0 -46 1 -92t1 -93q0 -7 -7 -10t-16.5 -4t-19.5 -0.5t-15 0.5q-15 0 -23 5t-8 22z" />
    <glyph glyph-name="O" unicode="O" horiz-adv-x="353" 
d="M161 760q16 0 26.5 -5.5t22.5 -15.5q14 -11 23 -23t18 -27l8 -13q12 -20 19 -46.5t10 -55.5t3.5 -57.5t0.5 -51.5q0 -33 0.5 -66.5t-1.5 -67.5q-1 -28 -7 -69.5t-16.5 -85t-24.5 -82t-31 -59.5q-13 -16 -33.5 -25.5t-40.5 -9.5q-24 0 -41 16.5t-30 34.5
q-20 29 -32.5 66.5t-20 77t-10 79.5t-2.5 75q0 38 3.5 86t11.5 96.5t22.5 93t36.5 76.5q14 21 35.5 40t49.5 19zM166 51q7 0 14 9t13 21.5t10.5 24.5t6.5 18q6 18 12 35.5t10 36.5q15 69 18.5 137.5t3.5 138.5q0 39 -3 80.5t-18 79.5q-5 14 -11.5 27.5t-15.5 24.5
q-5 6 -12.5 13t-15.5 7q-3 0 -5 -1q-16 -8 -29 -29.5t-22.5 -50.5t-16 -62.5t-10.5 -65.5t-6 -59.5t-2 -44.5q0 -35 3 -76t10 -82.5t18 -80.5t26 -71q1 -3 3.5 -8t5.5 -10t6.5 -8.5t6.5 -3.5z" />
    <glyph glyph-name="P" unicode="P" horiz-adv-x="325" 
d="M1 146q0 28 1.5 55t1.5 55q0 80 0.5 159t0.5 159v109q0 11 -1 20.5t-1 20.5q0 27 14.5 30.5t35.5 3.5h26q15 0 30 -2.5t29 -5.5q9 -2 19 -5t18 -8q59 -32 82.5 -84.5t23.5 -116.5q0 -25 -4 -49t-10 -48q-13 -47 -38 -80.5t-65 -60.5q-15 -11 -30.5 -15.5t-32.5 -11.5
q-5 -2 -6 -4t-1 -7q0 -31 -1.5 -61t-1.5 -61q0 -26 1.5 -52.5t1.5 -52.5q0 -14 -3.5 -21t-10 -10t-16 -3.5t-20.5 -0.5q-17 0 -30 5t-13 25v118zM93 479q0 -40 -0.5 -79t1.5 -79q16 6 34 16t34 23.5t28.5 29.5t18.5 33q11 28 16 58t5 59q0 40 -10 74.5t-41 62.5
q-18 16 -38 26.5t-45 10.5h-9q1 -13 0.5 -25t0.5 -25q1 -30 3 -59.5t2 -59.5v-66z" />
    <glyph glyph-name="Q" unicode="Q" horiz-adv-x="380" 
d="M-1 346q0 41 3.5 89.5t12.5 97t25.5 92.5t43.5 77q18 22 42.5 40t54.5 18q17 0 28.5 -5.5t25.5 -14.5q16 -11 28 -24.5t23 -29.5q31 -45 37.5 -100.5t6.5 -108.5q0 -36 0.5 -72.5t-1.5 -72.5q-1 -27 -7.5 -64.5t-16 -75.5t-22.5 -73.5t-28 -57.5q1 -4 5.5 -13.5t9.5 -20
t8.5 -19t3.5 -10.5q0 -7 -6 -10.5t-11 -3.5q-8 0 -14 4.5t-10.5 10.5t-8.5 13t-8 13q-14 -11 -34 -17.5t-37 -6.5q-26 0 -45.5 15.5t-34.5 35.5q-22 29 -36.5 65.5t-22.5 75.5t-11.5 78t-3.5 75zM200 704q-2 0 -3 -0.5t-3 -0.5q-18 -6 -32.5 -26.5t-25.5 -49t-19 -62
t-13.5 -65t-8 -59.5t-2.5 -45q0 -38 4 -79.5t12.5 -82.5t21.5 -80.5t30 -73.5q3 -6 9.5 -16.5t14.5 -10.5q5 0 11.5 4.5t9.5 8.5q-2 5 -8 19.5t-12.5 29.5t-11.5 27.5t-5 14.5q0 8 6 12t13 4q10 0 17.5 -6.5t12 -15.5t8 -19.5t6.5 -18.5q18 45 29 86.5t17 83.5t8 85t2 91
q0 27 -1 57.5t-6.5 60.5t-16.5 57.5t-30 48.5q-6 6 -15.5 13.5t-18.5 7.5z" />
    <glyph glyph-name="R" unicode="R" horiz-adv-x="323" 
d="M3 418q0 45 1 90.5t1 90.5v64t6 63q3 17 8.5 22t22.5 7q11 2 22 2h22q75 0 115.5 -31t40.5 -110q0 -32 -6.5 -63.5t-17.5 -61.5q-15 -45 -44.5 -78.5t-63.5 -64.5q2 -8 6 -14t8 -13q11 -20 22.5 -39.5t22.5 -39.5q25 -51 45 -103t48 -102q3 -5 5 -9t2 -10q0 -7 -5 -14.5
t-13 -7.5q-9 0 -15.5 6t-11.5 13q-29 45 -48.5 96t-42.5 100q-11 22 -20.5 44.5t-23.5 42.5q0 -7 -0.5 -13.5t-0.5 -13.5q0 -60 2 -120.5t2 -120.5q0 -20 -6 -26t-26 -6q-8 0 -15 0.5t-15 0.5q-20 0 -23 8.5t-3 25.5q0 48 -0.5 94t-0.5 94v197zM90 711q-3 -74 -3 -148v-48
q0 -30 0.5 -60.5t0.5 -60.5q28 24 48 48t33 50.5t19 56.5t6 67q0 50 -21 72.5t-72 22.5h-11z" />
    <glyph glyph-name="S" unicode="S" horiz-adv-x="299" 
d="M22 188q11 0 16.5 -9t8.5 -18q3 -8 9.5 -26t14.5 -37t17 -33.5t18 -15.5h8q16 0 26.5 9.5t16.5 24t8 30.5t2 29q0 47 -9 85.5t-32 80.5q-17 29 -33.5 61.5t-31.5 66t-27.5 68t-20.5 66.5q-3 11 -4 22t-1 22q0 37 15 72q6 12 14.5 25.5t19.5 24.5t24.5 18t28.5 7
q33 0 55.5 -14.5t36.5 -37.5t20.5 -51.5t6.5 -56.5q0 -6 -0.5 -14t-3 -14.5t-7.5 -11.5t-13 -5q-11 0 -17 7.5t-6 17.5q0 4 0.5 8t0.5 8q0 13 -2.5 33t-9.5 38.5t-18.5 31.5t-29.5 13q-21 0 -35 -17t-14 -37q0 -60 24 -114q22 -50 45.5 -99t46.5 -98q18 -38 32 -86t14 -90
q0 -47 -14 -88t-55 -68q-12 -8 -26.5 -11.5t-28.5 -3.5q-23 0 -39.5 13t-28.5 32t-20.5 41t-14.5 39q-3 9 -6.5 18t-3.5 19t6 17.5t17 7.5z" />
    <glyph glyph-name="T" unicode="T" horiz-adv-x="343" 
d="M246 756q4 0 12 0.5t16 -0.5t13.5 -4t5.5 -10q0 -17 -11 -20t-25 -3h-64q0 -56 3 -111.5t4 -111.5q2 -119 3.5 -236.5t1.5 -236.5q0 -15 -9 -19.5t-22 -4.5q-6 0 -16 -0.5t-19.5 1t-16.5 5.5t-7 13q0 119 -1.5 237.5t-5.5 237.5q-1 25 -1.5 50t-1.5 50q-1 32 -2.5 63.5
t-2.5 63.5h-16.5h-24.5t-24.5 1t-15.5 2q-7 2 -12 5.5t-5 11.5q0 20 18 20h110q14 0 26.5 -1.5t26.5 -1.5q16 0 31.5 -0.5t31.5 -0.5z" />
    <glyph glyph-name="U" unicode="U" horiz-adv-x="324" 
d="M68 758q13 0 16.5 -6t3.5 -17q0 -54 -0.5 -106.5t-0.5 -106.5q0 -86 4 -170.5t9 -170.5q1 -11 4.5 -31t10.5 -40.5t17 -35.5t24 -15q13 0 22.5 13t15.5 33.5t9.5 45t5 48t2 43t0.5 29.5v468q0 8 2.5 13t11.5 5h8q8 0 15.5 -2t7.5 -12v-442v-51.5t-2.5 -64.5t-9 -67
t-19.5 -60t-33.5 -43.5t-51.5 -16.5q-20 0 -40.5 7.5t-34.5 23.5q-23 26 -32 59t-14 66q-8 55 -9 110t-3 110q-1 24 -1 47.5v47.5q0 39 -1 77.5t-1 77.5q0 29 1 57t1 57q0 20 20 20h42z" />
    <glyph glyph-name="V" unicode="V" horiz-adv-x="340" 
d="M256 760q12 0 15.5 -9t3.5 -19q0 -17 -2.5 -32.5t-4.5 -32.5l-15 -129q-2 -22 -5 -44l-6 -44q-5 -32 -7 -65t-5 -65q-5 -41 -9.5 -81.5t-9.5 -81.5q-3 -26 -6.5 -52.5t-5.5 -52.5q-1 -8 -1 -14.5t-2 -14.5q-2 -10 -8 -16.5t-17 -6.5h-17t-17 1q-11 1 -16 2.5t-11 11.5
q-4 5 -10.5 42.5t-15 91t-17.5 117t-17 121t-14 102t-8 61.5l-10 68l-10 68l-4 24t-2 24q0 9 8.5 14t20 7.5t23.5 2.5h18q11 0 14.5 -5.5t5.5 -15.5q6 -30 9 -60.5t8 -60.5l60 -414q8 81 17 162.5t19 162.5l15 132q2 17 3.5 34.5t5.5 34.5q2 12 7 22t20 10z" />
    <glyph glyph-name="W" unicode="W" horiz-adv-x="485" 
d="M62 758q11 0 16.5 -0.5t8.5 -3t4 -8.5t3 -16q11 -54 13.5 -108.5t8.5 -109.5q10 -88 21.5 -173.5t22.5 -173.5q14 83 22.5 165.5t13.5 166.5q2 33 5 66t5 66q2 29 3 57t5 57l5 6q5 2 9.5 3t9.5 1q14 0 18 -9.5t6 -20.5q5 -37 7.5 -73.5t5.5 -73.5q9 -109 16 -217t24 -217
q10 109 22 216t25 216q3 28 8 55.5t8 56.5q1 10 2 19t3 19q2 13 6 22.5t20 9.5q11 0 15.5 -7.5t4.5 -17.5q0 -23 -4 -45t-7 -45q-6 -39 -10.5 -78.5t-9.5 -79.5q-11 -89 -20 -177t-18 -177q-1 -9 -2.5 -26.5t-4 -36.5t-6.5 -35t-9 -22q-9 -9 -21 -9q-14 0 -20 8t-10 20
q-8 27 -12 55.5t-8 56.5q-11 81 -15.5 160.5t-10.5 160.5q-3 -63 -10 -125.5t-15 -125.5q-5 -42 -11.5 -91.5t-18.5 -90.5q-5 -17 -13 -23t-26 -6q-8 0 -17 -1t-17 1q-13 2 -19 8.5t-8 15.5t-2.5 19t-1.5 20q-5 45 -11.5 89.5t-11.5 89.5q-8 66 -15 132l-14 132
q-4 36 -9 71.5t-9 71.5q-2 24 -6 48t-4 48q0 10 5.5 12t13.5 2h41z" />
    <glyph glyph-name="X" unicode="X" horiz-adv-x="376" 
d="M181 467q14 45 30.5 89t31.5 89q8 24 15.5 48.5t18.5 47.5q3 7 7 11t12 4t17 -6t9 -14q0 -2 -1 -6t-2 -6q-5 -15 -11.5 -29.5t-11.5 -29.5q-23 -63 -42 -126q-3 -11 -11 -32.5t-15.5 -45.5t-13.5 -45t-6 -29q0 -4 5.5 -21t13.5 -40.5t18 -51.5t19 -53t16 -45t10 -28
q3 -7 9 -25t12.5 -38t11.5 -37.5t5 -22.5q0 -7 -2 -10q-3 -4 -10 -7t-15 -5.5t-16 -4t-13 -1.5q-10 0 -15.5 5t-10.5 13t-8 17t-5 18q-14 53 -34.5 103.5t-34.5 103.5q-8 -29 -17 -56.5t-17 -56.5q-8 -30 -17 -60.5t-19 -60.5q-3 -10 -8.5 -16.5t-16.5 -6.5t-18 6t-7 17
q0 3 4.5 18.5t11 37.5t14.5 47.5t15 48.5t13 41t8 26q1 5 5.5 18.5t8.5 27.5t7.5 26.5t3.5 15.5t-2 9q-3 9 -14 41t-26 74.5t-31.5 89.5t-30 87t-22.5 67.5t-9 30.5q0 5 2 8q3 4 11.5 7.5t18.5 6.5t19.5 4.5t14.5 1.5q19 0 27 -20q27 -64 47.5 -133.5t40.5 -136.5z" />
    <glyph glyph-name="Y" unicode="Y" horiz-adv-x="346" 
d="M221 724l8 22t19 11q7 0 17 -2t20 -6.5t17 -10.5t7 -15q0 -6 -1.5 -11.5t-3.5 -10.5l-59.5 -178.5t-57.5 -179.5q-17 -56 -34 -110.5t-34 -109.5q-8 -26 -15.5 -53t-18.5 -52q-8 -18 -19.5 -19t-28.5 -1q-2 0 -4 -0.5t-4 -0.5q-11 0 -20 6.5t-9 17.5q0 5 3 16t7 23
t8.5 23.5t6.5 17.5q12 35 22 69.5t20 69.5q11 37 22.5 73.5t20.5 74.5l-4 16l-4 16l-54 175q-2 7 -9 28t-14.5 44t-13 42t-5.5 22q0 11 7.5 18.5t18.5 7.5q9 0 14.5 -5.5t8.5 -13.5q17 -38 27.5 -77.5t22.5 -78.5q8 -26 16.5 -52.5t16.5 -52.5z" />
    <glyph glyph-name="Z" unicode="Z" horiz-adv-x="305" 
d="M4 27q0 29 5 58.5t12 57.5l136 569q-13 -1 -26 -1.5t-26 -0.5h-63q-12 0 -19.5 10t-7.5 21q0 19 18 19q10 0 19.5 -1t19.5 -1q32 0 63 1t63 1q20 0 31.5 -7t11.5 -29q0 -26 -7.5 -52.5t-13.5 -52.5q-8 -33 -16.5 -65.5t-16.5 -65.5q-11 -45 -20 -89t-19 -89
q-15 -65 -29.5 -129.5t-28.5 -129.5h3q21 0 42.5 0.5t42.5 0.5q15 0 31 -4.5t16 -23.5q0 -9 -2.5 -16.5t-13.5 -7.5q-29 0 -57 1t-57 1q-17 0 -33 -0.5t-33 -0.5q-14 0 -19.5 6t-5.5 20z" />
    <glyph glyph-name="bracketleft" unicode="[" horiz-adv-x="241" 
d="M3 56q0 20 1 39.5t2 39.5q3 120 3 241q0 89 -2.5 177t-2.5 177q0 22 1 34t6 17.5t17 6.5t35 1q10 0 19.5 -0.5t19.5 -0.5q12 0 23.5 1t23.5 1q9 0 19.5 -4.5t10.5 -15.5q0 -7 -4.5 -11t-11 -6t-13.5 -2.5t-12 -0.5q-14 0 -27.5 0.5t-27.5 -0.5q3 -51 3.5 -102.5
t0.5 -102.5q0 -90 -2 -178t-2 -178q0 -44 0.5 -87t-1.5 -87q9 1 17.5 1.5t17.5 0.5q4 0 11.5 -0.5t14.5 -2t12.5 -5t5.5 -9.5q0 -8 -5 -15.5t-14 -7.5q-14 0 -28.5 0.5t-28.5 0.5q-11 0 -21.5 -0.5t-21.5 -0.5q-12 0 -22 3t-13 17t-3.5 29t-0.5 30z" />
    <glyph glyph-name="backslash" unicode="\" horiz-adv-x="293" 
d="M32 755q7 0 10 -3q2 -2 7 -16.5t11.5 -36t13.5 -47t13.5 -49t11.5 -41t7 -23.5q8 -25 14 -50t14 -50q11 -37 22.5 -73t22.5 -72q14 -45 25.5 -90.5t25.5 -90.5q2 -6 7 -21.5t10 -32t9 -31t4 -17.5q0 -8 -11 -12.5t-18 -4.5t-10 6q-5 9 -8.5 26t-6.5 28t-7 21.5t-8 21.5
q-10 29 -18 59t-16 59q-18 64 -39 129q-8 26 -13.5 52t-13.5 52l-47 165l-8.5 25.5t-13 41t-12 38.5t-5.5 19q0 7 10.5 12.5t16.5 5.5z" />
    <glyph glyph-name="bracketright" unicode="]" horiz-adv-x="251" 
d="M179 65q0 -14 -0.5 -34t-2.5 -34q-3 -14 -13.5 -17t-22.5 -3q-11 0 -21 0.5t-21 0.5q-14 0 -28.5 -0.5t-28.5 -0.5q-10 0 -15 7t-5 16q0 6 5.5 9.5t12.5 5t14.5 2t11.5 0.5q9 0 18 -0.5t18 -1.5q-2 44 -2 87v87q0 90 -1.5 178t-1.5 178q0 37 0.5 73.5t0.5 73.5q0 29 3 58
h-13q-7 0 -21 -1t-28 0.5t-24.5 5.5t-10.5 15t11 15.5t19 4.5q12 0 24 -1t24 -1q10 0 19 0.5t19 0.5h30.5t18 -4.5t8.5 -14.5t2 -30q0 -91 -2 -182t-2 -182q0 -121 3 -241q1 -17 1.5 -35t0.5 -35z" />
    <glyph glyph-name="asciicircum" unicode="^" horiz-adv-x="301" 
d="M136 742q14 0 19 -10.5t7 -21.5q3 -15 6.5 -30.5t7.5 -30.5l16 -54l16 -54l8 -24t10 -31.5t9 -31t4 -21.5q0 -10 -5.5 -18.5t-16.5 -8.5q-8 0 -11.5 6t-5.5 12q-4 9 -6.5 18.5t-5.5 19.5q-14 42 -27 84t-24 85q-16 -52 -33 -103t-35 -102q-3 -8 -7 -15t-15 -7
q-19 0 -33 9t-14 30q0 4 3 15.5t7 24t8 24.5l6 18q14 48 29 99t36 96q6 14 19.5 18t27.5 4z" />
    <glyph glyph-name="underscore" unicode="_" horiz-adv-x="309" 
d="M341 -47q0 -13 -12 -13q-26 0 -65.5 -0.5t-81.5 -0.5t-81.5 -0.5t-65.5 -0.5h-60q-11 0 -14 5.5t-3 15.5q0 11 1.5 15.5t13.5 4.5q31 0 76 0.5t92 0.5t91.5 0.5t76.5 0.5q19 0 25.5 -3.5t6.5 -24.5z" />
    <glyph glyph-name="grave" unicode="`" horiz-adv-x="175" 
d="M4 904q0 8 5 13.5t13 5.5q5 0 9 -3t7 -7q4 -5 14.5 -19.5t21.5 -30.5t20 -30t9 -17q0 -7 -6 -12.5t-13 -5.5q-6 0 -11 4.5t-9 9.5q-5 5 -7.5 11.5t-6.5 11.5t-11.5 14.5t-15 19.5t-13.5 19.5t-6 15.5z" />
    <glyph glyph-name="a" unicode="a" horiz-adv-x="355" 
d="M149 555q28 0 48.5 -11.5t34 -30t21 -42t9.5 -48.5q6 -77 8.5 -153t2.5 -153q0 -24 1 -47.5t1 -47.5q0 -9 -3.5 -13t-9.5 -5.5t-12.5 -2t-12.5 -0.5q-2 0 -4 -0.5t-4 -0.5q-15 0 -19.5 13.5t-5.5 24.5q-30 -37 -78 -37q-10 0 -18.5 0.5t-17.5 5.5q-19 10 -34.5 26
t-23.5 36l-3 9q-4 9 -8.5 16.5t-6.5 17.5q-11 42 -11 83q0 29 8.5 62t26 61.5t43 47.5t59.5 19q31 0 60 -19q0 10 -1 34.5t-5.5 49t-13 43.5t-23.5 19q-19 0 -32 -9.5t-22 -24t-15.5 -31t-12.5 -30.5l-9 -4q-20 5 -20 22q0 2 0.5 4t0.5 4q3 19 11.5 38.5t21.5 36t30.5 27
t38.5 10.5zM203 303q0 5 -0.5 7.5t-5.5 5.5q-11 8 -30.5 15.5t-33.5 7.5q-15 0 -27.5 -8t-21.5 -20t-16 -26t-12 -26q-6 -14 -8 -29.5t-2 -31.5q0 -38 7 -71t36 -60q5 -5 15.5 -13t17.5 -8q18 0 33 11t25.5 27.5t16.5 35.5t6 35v148z" />
    <glyph glyph-name="b" unicode="b" horiz-adv-x="281" 
d="M72 549q10 -2 23.5 -8.5t28 -15.5t27 -18.5t20.5 -16.5q16 -15 26.5 -34t16 -40t7.5 -43t2 -43q0 -43 -5.5 -84.5t-18 -79.5t-34.5 -73t-55 -65q-14 -13 -23.5 -20t-29.5 -7q-12 0 -21.5 0.5t-15.5 4.5t-9.5 12t-3.5 22q0 118 -1.5 235.5t-1.5 235.5q0 23 -1 45t-1 45
v178q0 11 3.5 20t17.5 9h25q12 0 16.5 -7.5t4.5 -18.5q0 -48 0.5 -95t0.5 -95q0 -11 1 -21.5t1 -21.5zM76 502v-17t1 -17q2 -44 3 -87.5t1 -87.5v-73q0 -39 -0.5 -78t1.5 -78q24 24 42.5 48.5t29.5 56.5q14 38 22 78t8 81q0 66 -22.5 107t-85.5 67z" />
    <glyph glyph-name="c" unicode="c" horiz-adv-x="268" 
d="M171 413q-11 0 -13.5 10.5t-2.5 18.5q0 22 -1.5 37.5t-17.5 32.5q-4 -1 -9 -6q-17 -17 -27 -39t-15.5 -46t-7.5 -48.5t-2 -47.5q0 -51 2 -101t7 -101q1 -9 4.5 -22.5t9 -26.5t14 -22t20.5 -9q17 0 25 16t13 35.5t10.5 36t18.5 16.5q7 0 11 -6t4 -12q0 -7 -1.5 -13.5
t-3.5 -13.5q-5 -20 -10 -38t-15 -32.5t-25 -23t-39 -8.5q-38 0 -60 22.5t-33 55t-15 68.5t-5 64l-2 44t-1 44q0 17 1.5 43t5.5 54.5t11 57.5t19 52t29 37.5t41 14.5q26 0 42 -10t24.5 -26.5t11.5 -37t3 -41.5q0 -11 -3.5 -20t-17.5 -9z" />
    <glyph glyph-name="d" unicode="d" horiz-adv-x="331" 
d="M256 798q0 -29 -1 -58t-1 -58v-107q0 -48 1 -95.5t1 -95.5q0 -34 -1 -68t-1 -68q0 -63 3 -124q1 -24 4.5 -47.5t3.5 -47.5q0 -11 -7.5 -18.5t-18.5 -7.5q-12 0 -18.5 5.5t-10.5 13.5t-6 17.5t-4 18.5q-11 -20 -27.5 -38.5t-41.5 -18.5h-9q-30 0 -51 19.5t-35 47.5
t-21 59.5t-9 54.5q-3 31 -3 64q0 48 8.5 95.5t28.5 92.5q9 20 19 39.5t24 35.5t32.5 25.5t43.5 9.5q6 0 12 -0.5t12 -1.5v56t1 56q1 26 2 50.5t1 50.5q0 6 -0.5 16t0 19.5t4 17t12.5 7.5q8 0 15 -0.5t15 -0.5t15.5 -2.5t7.5 -13.5zM189 141q0 19 -1.5 38t-2.5 38
q-1 29 -1 57t-2 57q-1 5 -1 11v11q0 19 1 37.5t1 37.5v71q-5 2 -11 3t-11 1q-16 0 -28 -9t-21 -21q-17 -22 -30 -50.5t-21 -60t-12 -63t-4 -58.5q0 -21 1.5 -46t7 -49.5t15.5 -46.5t27 -37q5 -5 12 -10.5t15 -5.5q9 0 16 6.5t12 12.5q7 9 12.5 15.5t9.5 13.5t7 15.5t6 19.5
q0 1 1.5 6t1.5 6z" />
    <glyph glyph-name="e" unicode="e" horiz-adv-x="287" 
d="M86 361q-1 -7 -2.5 -13t-2.5 -13q-3 -23 -4 -46.5t-1 -46.5q0 -17 2.5 -49.5t11 -64t23.5 -55t39 -23.5q18 0 27 10t15 22.5t12.5 22.5t20.5 10q8 0 12.5 -5.5t4.5 -13.5q0 -6 -3 -16t-7.5 -20.5t-10 -19.5t-9.5 -13q-15 -16 -32.5 -20.5t-38.5 -4.5h-19q-36 0 -59.5 23
t-37.5 56t-19.5 70t-5.5 64q0 19 0.5 37.5t1.5 37.5q1 31 8 76t23 87t42.5 72t67.5 30q26 0 43.5 -12t28.5 -30.5t15.5 -41t4.5 -44.5q0 -25 -5.5 -37t-16 -16.5t-26 -5t-34.5 -1.5q-17 -1 -34.5 -2.5t-34.5 -3.5zM194 410q3 12 3 24q0 10 -2 24t-7.5 26.5t-14.5 21t-22 8.5
q-5 0 -7 -1q-9 -3 -17.5 -17t-16 -31.5t-12.5 -34.5t-6 -26q28 0 55 3q7 1 13.5 0.5t13.5 0.5q5 1 8.5 1.5t8.5 0.5h3z" />
    <glyph glyph-name="f" unicode="f" horiz-adv-x="265" 
d="M173 748q-4 0 -7.5 -2.5t-6.5 -4.5q-14 -11 -21 -33t-10.5 -47.5t-4.5 -50.5t-1 -41h72q9 0 19.5 -3t10.5 -15q0 -8 -5 -12.5t-13 -5.5q-17 -2 -34 -2.5t-34 -0.5q-5 0 -9 0.5t-9 -0.5q0 -102 4.5 -202t4.5 -202v-96q0 -28 -29 -28q-23 0 -27 15t-4 33v108.5t-2 108.5
q-2 37 -2.5 73t-1.5 73v58.5t-1 58.5q-3 0 -6.5 0.5t-6.5 0.5q-5 0 -11 -1t-11 -1q-10 0 -16.5 4.5t-6.5 15.5q0 16 14 19t25 3h20q1 34 3 70.5t15 68.5q5 12 13 26.5t19 27t24 21t28 8.5q22 0 37 -14.5t24 -32.5q4 -8 6 -16.5t4 -17.5q2 -5 3.5 -10.5t1.5 -10.5
q0 -7 -3.5 -12.5t-11.5 -5.5q-12 0 -17.5 11.5t-10 26t-9.5 26t-16 11.5z" />
    <glyph glyph-name="g" unicode="g" horiz-adv-x="306" 
d="M120 542q20 0 38.5 -4t33.5 -19q29 -27 29 -64v-252q0 -43 1 -85t1 -85q0 -14 -1.5 -28t-3.5 -28q-1 -4 -1 -13q-1 -23 -6 -54t-17 -59.5t-32 -48.5t-50 -20q-13 0 -24 5.5t-21 13.5q-16 12 -25.5 32.5t-15 43.5t-7.5 46.5t-2 42.5q0 8 3 21t14 13q13 0 16.5 -9.5
t3.5 -19.5q0 -8 0.5 -16.5t0.5 -16.5q0 -12 2 -27.5t6.5 -31.5t11.5 -30t16 -21q2 -2 6.5 -4t6.5 -2q7 0 13.5 5.5t11.5 13t8.5 16.5t4.5 15q3 18 4.5 36t3.5 36q2 16 1.5 32t1.5 32q-17 -15 -35 -15q-16 0 -31 10q-31 19 -48 47t-25.5 61t-10 68t-1.5 67q0 18 1 39.5
t3 43.5t6 43t10 38q7 19 12 38t15 36q11 20 28 39t43 19zM154 112q0 42 -1.5 83t-1.5 83q0 56 0.5 111t-2.5 111q-10 2 -16 2q-17 0 -29 -11.5t-20 -25.5q-28 -49 -36 -108.5t-8 -115.5q0 -50 6 -98q3 -29 15 -57t38 -43q8 -5 16 -5q10 0 17 8.5t12 20.5t7.5 24.5t2.5 20.5z
" />
    <glyph glyph-name="h" unicode="h" horiz-adv-x="330" 
d="M14 588q0 42 -0.5 84t-0.5 84v28.5t4.5 20t14.5 11.5t30 4q17 0 22.5 -7.5t6.5 -23.5q1 -11 1 -22.5v-22.5q0 -57 0.5 -112t0.5 -112q14 16 32 25.5t40 9.5q35 0 54.5 -18.5t28.5 -45.5t10.5 -58t1.5 -56q0 -54 -1.5 -107.5t-1.5 -107.5v-148q0 -6 -2.5 -11t-10.5 -5h-23
t-11 16q0 85 1.5 170t1.5 171q0 12 -0.5 33t-2.5 43.5t-6.5 41.5t-13.5 27q-6 5 -11 6.5t-13 1.5q-14 0 -25 -6.5t-19.5 -16.5t-14.5 -22.5t-10 -23.5q-2 -5 -4 -10.5t-2 -10.5q-2 -24 -1.5 -48t-0.5 -48q-1 -51 -2 -100t-1 -100q0 -14 -1 -26.5t-1 -26.5q0 -13 0.5 -26
t0.5 -26q0 -9 -7 -14q-4 -2 -8 -2.5t-9 -0.5q-8 0 -17 -1t-17 -1q-9 0 -14 4t-7 10.5t-2 14.5v15q0 48 2 96t3 96q2 89 3.5 177t1.5 177z" />
    <glyph glyph-name="i" unicode="i" horiz-adv-x="168" 
d="M2 33q0 39 2 77.5t2 77.5q0 78 0.5 156t0.5 156q0 10 -0.5 19.5t1.5 16t8.5 10.5t20.5 4h11t11 -1q14 -2 17 -7t3 -18q0 -41 1 -81.5t1 -81.5q0 -82 -2 -164t-2 -164v-11t-4 -11q-5 -6 -16.5 -8.5t-19.5 -2.5q-18 0 -26.5 7t-8.5 26zM43 734q20 0 31.5 -15t11.5 -34
q0 -17 -9 -34t-29 -17t-31.5 17.5t-11.5 35.5q0 17 9.5 32t28.5 15z" />
    <glyph glyph-name="j" unicode="j" horiz-adv-x="211" 
d="M91 618q-10 0 -18 5.5t-13.5 13.5t-8.5 17.5t-3 18.5q0 17 10 31.5t29 14.5q20 0 31.5 -15.5t11.5 -33.5q0 -17 -9.5 -34.5t-29.5 -17.5zM-27 -53q0 -6 -1 -11.5t-1 -11.5q0 -11 3 -27t9 -26q2 -4 8 -11.5t11 -7.5t11 5t9 8q14 15 22 40.5t11.5 54t4.5 56t1 47.5
q0 23 -0.5 46.5t-1.5 46.5q-1 29 -0.5 58t-1.5 58q-2 59 -3.5 116.5t-1.5 116.5q0 13 6 23t20 10q10 0 19 -0.5t16 -3.5t11 -9.5t4 -19.5q0 -3 0.5 -6.5t0.5 -6.5q2 -18 3 -36t1 -36q0 -26 -1 -50.5t-1 -50.5q0 -11 1 -22t1 -22q0 -38 0.5 -75t0.5 -75q0 -20 -0.5 -39
t-0.5 -39q-1 -30 -2.5 -57.5t-7.5 -53t-18.5 -49t-34.5 -47.5q-10 -11 -22.5 -19t-27.5 -8q-12 0 -24 2.5t-21 10.5q-20 20 -29.5 49t-9.5 57q0 9 2 22t15 13q20 0 20 -20z" />
    <glyph glyph-name="k" unicode="k" horiz-adv-x="304" 
d="M2 772q0 22 12.5 24.5t29.5 2.5q14 0 26 -4t12 -21v-322q0 -37 -1.5 -73.5t-2.5 -73.5q23 40 47 79t47 79q3 5 7.5 14t10 19t10.5 18t8 11q8 6 14 6q9 0 16 -7t7 -16t-4 -16.5t-8 -15.5q-23 -42 -47 -82t-47 -82q22 -57 40.5 -115t38.5 -117q2 -6 6 -15.5t7.5 -19.5
t6.5 -19t3 -14q0 -9 -6.5 -14t-14.5 -5q-15 0 -22 12.5t-12 24.5q-21 57 -38.5 115.5t-38.5 115.5q-7 -13 -14 -25t-14 -25v-26l1 -1q-2 -44 0 -87t2 -87q0 -11 -9.5 -13t-17.5 -2h-15t-17 1.5t-14 5.5t-6 12q0 17 -1.5 33t-1.5 33q0 57 2 112.5t2 112.5q0 118 -2 233.5
t-2 233.5z" />
    <glyph glyph-name="l" unicode="l" horiz-adv-x="137" 
d="M65 787q0 -94 -1 -187.5t-1 -187.5v-118q0 -67 1.5 -133t1.5 -133q0 -21 -6 -25t-25 -4q-9 0 -21.5 3t-12.5 16v96q0 44 1.5 86.5t1.5 86.5v172q0 82 -1.5 163t-1.5 163q0 18 6 23t23 5h8q15 0 21 -5.5t6 -20.5z" />
    <glyph glyph-name="m" unicode="m" horiz-adv-x="457" 
d="M351 12q0 52 0.5 103.5t0.5 103.5v52t-1 80.5t-3.5 79t-7.5 46.5q-5 11 -12.5 17t-19.5 6q-34 0 -53 -24.5t-28 -58.5t-11.5 -70t-3.5 -60q-2 -46 -3 -91t-2 -91q-1 -21 -0.5 -43t-1.5 -43q-1 -8 -4 -16t-13 -8q-15 0 -19 14t-4 25q0 75 3 150.5t3 150.5q0 10 -0.5 36
t-4 53.5t-10.5 48.5t-20 21h-2q-17 -7 -28 -26.5t-17 -43.5t-8 -48t-2 -40q0 -79 1.5 -157.5t1.5 -157.5q0 -17 -13.5 -20t-26.5 -3q-7 0 -13.5 1t-11.5 6q-3 3 -4.5 10t-2 15.5t-0.5 16.5v13q0 114 1.5 227t1.5 227q0 12 3 17t8.5 6.5t13.5 1t17 -0.5q11 0 19 -3.5t8 -17.5
q0 -4 -0.5 -7t-0.5 -7q11 15 24 26t33 11q15 0 25.5 -9t17 -22t10.5 -27.5t7 -26.5q15 41 42.5 64t72.5 23q27 0 42 -15t22.5 -36.5t9 -46.5t2.5 -44q1 -22 2 -43t1 -43q0 -54 -0.5 -107t-0.5 -107q0 -21 0.5 -43t-1.5 -43q-1 -11 -4.5 -15t-14.5 -4q-20 0 -20 17z" />
    <glyph glyph-name="n" unicode="n" 
d="M140 498q-20 0 -33.5 -16.5t-21.5 -39.5t-12 -47t-4 -39q0 -80 3.5 -159.5t3.5 -159.5q0 -18 -5 -28.5t-26 -10.5q-20 0 -26 8t-7 27q-3 55 -3 110t-1 111q-1 53 -1.5 104.5t-2.5 104.5q-1 18 -1.5 35.5t-0.5 35.5q0 2 0.5 3t0.5 3l8 5q7 0 13.5 2t13.5 2q10 0 15.5 -6
t8 -14.5t3 -18t0.5 -16.5q11 21 28 39.5t43 18.5q8 0 14.5 -2.5t12.5 -5.5q21 -10 31.5 -28.5t15.5 -40.5t6 -45t2 -42q3 -36 3 -73q0 -41 -1.5 -81t-1.5 -81q0 -30 0.5 -60t0.5 -60q0 -12 -3.5 -24t-18.5 -12q-14 0 -17.5 9t-3.5 20q0 73 1.5 146t1.5 146q0 20 -0.5 39
t-0.5 39q0 10 -0.5 27t-4 33.5t-11 29t-22.5 12.5z" />
    <glyph glyph-name="o" unicode="o" horiz-adv-x="295" 
d="M110 549q34 0 54.5 -22t35.5 -48q14 -24 22 -52.5t12 -58.5t5 -60t1 -58q0 -50 -10.5 -101.5t-32.5 -96.5q-11 -22 -26.5 -37t-41.5 -15q-27 0 -46 10.5t-32.5 27.5t-21.5 39t-12 45q-15 85 -15 172q0 22 2.5 56t9 69t17.5 65.5t28 46.5q10 9 24 13.5t27 4.5zM125 498
q-11 0 -18 -16t-12 -41t-8 -55t-4 -57.5t-1.5 -50t-0.5 -31.5q0 -14 2 -38t6 -49t9.5 -47.5t12.5 -34.5q5 -9 11 -15.5t16 -11.5q11 0 21.5 20.5t18.5 46.5t13.5 51t7.5 35q2 14 3 28t1 28q0 25 -1 56t-6 62t-16 58.5t-31 46.5q-3 3 -11.5 9t-12.5 6z" />
    <glyph glyph-name="p" unicode="p" horiz-adv-x="274" 
d="M74 14q-1 -31 -1.5 -62t-0.5 -62q0 -32 1.5 -64t1.5 -64q0 -13 -5.5 -21t-19.5 -8q-7 0 -13.5 1t-13.5 1q-6 0 -8.5 1.5t-5.5 6.5q-2 3 -3 22t-1 41.5v43v26.5q0 165 0.5 327.5t0.5 327.5q0 17 9 18t21 2h3l4 1l3 1q5 2 13 2q18 0 20 -18q16 13 34 13q23 0 39.5 -18.5
t28 -47t18.5 -64t11 -69.5t5 -63.5t1 -45.5q0 -14 -1.5 -38t-5 -52t-10 -56t-17 -51t-25.5 -37.5t-35 -14.5q-29 0 -48 21zM75 146q0 -21 6.5 -48.5t23.5 -42.5q3 -3 7 -6t9 -3q7 0 12.5 7t10 16.5t8 19t5.5 14.5q11 34 15 68.5t4 69.5q0 58 -6.5 120t-32.5 116
q-4 8 -10.5 15.5t-16.5 7.5q-12 0 -18 -6.5t-9 -15.5t-4 -19.5t-1 -18.5q-2 -34 -2 -68v-68q0 -40 -0.5 -79t-0.5 -79z" />
    <glyph glyph-name="q" unicode="q" horiz-adv-x="344" 
d="M265 540q0 -72 -0.5 -143t-0.5 -143q0 -43 0.5 -85t0.5 -85q0 -24 1 -48.5t1 -48.5q0 -30 -1 -59.5t-1 -59.5q0 -26 0.5 -51t0.5 -51q0 -17 -1.5 -26t-6 -13t-13.5 -5t-25 -1q-28 0 -28 28q0 34 1.5 67.5t1.5 67.5q0 35 -1 70.5t-2 70.5q-13 -16 -31 -23.5t-38 -7.5
q-25 0 -44 13.5t-32.5 35.5t-22 50t-14 56t-7.5 54t-2 44q0 32 3.5 64.5t8.5 64.5q3 22 12 52t23.5 57t35.5 45.5t49 18.5q14 0 27.5 -4.5t24.5 -12.5q1 5 1 9.5t2 9.5q9 8 25 8q5 0 14 -0.5t17.5 -2t14.5 -5.5t6 -11zM123 43q8 0 14 2.5t12 6.5q19 13 28 33t12 43t2.5 46.5
t-0.5 43.5v56q0 42 -1 84t-3 84q-1 12 -3 23.5t-7 20t-13.5 14t-23.5 5.5q-14 0 -25 -7t-19 -18q-17 -24 -27 -54t-15 -62t-7 -64.5t-2 -60.5q0 -35 5.5 -70t19.5 -67q3 -8 8 -18t12 -19t15 -15.5t18 -6.5z" />
    <glyph glyph-name="r" unicode="r" horiz-adv-x="260" 
d="M75 468q2 3 3 5.5t2 5.5q4 11 12.5 23t19 22t23 16.5t25.5 6.5q15 0 27 -6.5t20.5 -17t14 -24t7.5 -26.5q1 -6 2.5 -12.5t1.5 -12.5q0 -22 -21 -22q-13 0 -16.5 11.5t-5.5 26t-6.5 26t-19.5 11.5q-9 0 -16 -7q-19 -16 -31.5 -43.5t-20.5 -61t-12 -71t-5.5 -73.5
t-1.5 -68.5v-56.5q0 -20 -0.5 -40t-0.5 -40t-5 -32t-31 -12q-16 0 -27.5 9.5t-11.5 26.5q0 42 2 83.5t2 83.5q0 75 -0.5 149.5t-0.5 149.5q0 11 0.5 21t3.5 20l5 6q17 10 40 10q14 0 20 -11t6 -23q0 -14 -1.5 -26.5t-2.5 -26.5z" />
    <glyph glyph-name="s" unicode="s" horiz-adv-x="260" 
d="M112 556q26 0 42.5 -14.5t25.5 -36t12.5 -46t3.5 -44.5q0 -7 -3 -22t-11 -17q-3 -3 -10 -3q-8 0 -14 5t-6 14q0 30 -1 54.5t-20 50.5q-7 10 -18 10q-13 0 -21 -8t-12.5 -20t-6 -25t-1.5 -22q0 -30 9 -57t30 -49q22 -23 38 -39t27.5 -33.5t19 -39t12.5 -54.5q2 -8 2 -15
v-15q0 -24 -4 -48t-15 -43t-29.5 -30.5t-47.5 -11.5q-82 0 -98 78q-4 17 -4 33t-1 33q0 9 -1 18.5t-1 18.5q0 10 7 20.5t18 10.5q8 0 12.5 -4.5t7 -11.5t3 -14t0.5 -13q0 -20 -0.5 -40t4.5 -40q3 -13 12.5 -28t25.5 -15q12 0 20.5 10.5t14 25.5t8.5 30t3 24q0 26 -9.5 54
t-27.5 46q-9 8 -18.5 16t-18.5 16q-32 31 -51.5 60.5t-19.5 76.5q0 18 4.5 40.5t14 43.5t23.5 38t32 25q17 7 38 7z" />
    <glyph glyph-name="t" unicode="t" horiz-adv-x="261" 
d="M170 536q7 0 16.5 0.5t18 -0.5t14.5 -6t6 -15q0 -8 -6.5 -14t-14.5 -6q-9 0 -17.5 -1t-17.5 -1q-8 0 -17 0.5t-17 0.5v-7q0 -17 0.5 -33.5t-0.5 -33.5q-4 -66 -7.5 -131.5t-3.5 -131.5q0 -8 0.5 -27t3 -39.5t8 -36t16.5 -15.5q5 0 6.5 6.5t3.5 14t6 14t15 6.5
q8 0 15 -7.5t7 -15.5q0 -5 -1.5 -8.5t-3.5 -7.5q-8 -23 -19 -33t-37 -10q-31 0 -49 18.5t-27 45.5t-11 57t-2 53q0 22 -1 44t-1 44q0 59 2 117t4 117q-7 -1 -13.5 -2t-13.5 -1q-11 0 -20.5 6.5t-9.5 18.5q0 11 9.5 15t18.5 4q8 0 16 -1t16 1q2 26 3 52.5t3 52.5
q1 6 0.5 12.5t1.5 12.5q2 11 15.5 14t22.5 3q14 0 25 -5.5t11 -22.5q0 -28 -4.5 -55.5t-4.5 -56.5v-6h35v0z" />
    <glyph glyph-name="u" unicode="u" horiz-adv-x="335" 
d="M198 554q7 0 14 -1.5t14 -3.5q17 -3 25.5 -9t8.5 -26q0 -9 -0.5 -18.5t-1.5 -18.5q-2 -51 -3.5 -101.5t-1.5 -101.5v-64.5t2 -64.5q2 -26 6 -51t4 -51q0 -14 -8 -26t-23 -12t-23 8.5t-11.5 21.5t-4.5 26.5t-2 24.5q-4 -15 -10.5 -30t-17 -27t-24 -19.5t-30.5 -7.5
q-43 0 -64 36q-14 24 -23 58.5t-13.5 72t-6 74t-1.5 64.5q0 29 1 56.5t3 56.5q2 27 1.5 59t4.5 58q2 8 5.5 14.5t13.5 6.5q11 0 18.5 -8t7.5 -19q0 -14 -1 -26.5t-2 -26.5q-3 -43 -3.5 -86t-0.5 -86q0 -21 0.5 -59t5 -77t14.5 -72t29 -45q1 -1 4 -2t5 -1q13 0 22.5 13.5
t15.5 35t10 47t5.5 50t2.5 44t1 29.5q2 35 4.5 68.5t2.5 68.5v99q0 6 -1 12t-1 12q0 12 8 18.5t19 6.5z" />
    <glyph glyph-name="v" unicode="v" horiz-adv-x="329" 
d="M127 0q-17 0 -20.5 10t-7.5 23q-8 26 -13.5 53t-12.5 54q-18 72 -31.5 143.5t-26.5 143.5q-4 22 -9.5 44.5t-5.5 45.5q0 11 5 21t18 10q12 0 16 -9t6 -19q10 -57 19.5 -113.5t21.5 -113.5q8 -38 15.5 -76t18.5 -76q10 39 20.5 78t19.5 79q5 22 10 43.5t10 42.5q2 10 5 20
t5 20q5 22 8.5 43.5t8.5 42.5q2 7 3.5 13.5t5.5 12.5q5 8 9 12t14 4q9 0 18.5 -2t18 -6t14 -11.5t5.5 -17.5q0 -29 -10.5 -63.5t-18.5 -62.5q-10 -39 -19.5 -78t-20.5 -78l-65 -227q-3 -5 -7 -6h-27z" />
    <glyph glyph-name="w" unicode="w" horiz-adv-x="417" 
d="M179 535q7 0 11.5 -6t7 -14t3.5 -16.5t1 -13.5q1 -11 3.5 -20.5t4.5 -19.5q10 -52 18 -104t18 -104q5 -27 11.5 -53.5t12.5 -53.5q4 29 6.5 57t7.5 57q8 51 14.5 102t14.5 102q2 17 3 34.5t3 34.5q1 9 4.5 16.5t14.5 7.5t15.5 -9.5t4.5 -18.5q0 -8 -1.5 -17t-2.5 -17
l-4 -32l-4 -32q-3 -20 -5.5 -38.5t-4.5 -38.5q-8 -55 -16 -109.5t-13 -110.5q-2 -21 -4.5 -42.5t-4.5 -42.5q-2 -10 -5 -22.5t-17 -12.5q-13 0 -17 12t-6 22q-2 11 -4.5 22.5t-5.5 22.5q-7 26 -12.5 53t-10.5 54q-14 66 -24 132q-3 22 -7.5 43t-8.5 42q-4 -23 -6.5 -45
t-4.5 -45q-2 -16 -5 -31t-5 -31q-8 -59 -16.5 -116.5t-19.5 -116.5q-2 -11 -5 -17.5t-16 -6.5q-10 0 -19 6.5t-12 15.5q-4 11 -6 24t-4 24q-5 35 -9.5 70t-9.5 70q-7 46 -13.5 91t-11.5 91q-3 26 -6.5 52.5t-5.5 52.5q-1 9 -1.5 19t-2.5 19l2 7q9 10 24 10q8 0 16.5 -0.5
t15.5 -3.5l-3 1h4q8 -2 9.5 -10t1.5 -15q0 -16 1 -32.5t3 -32.5q1 -11 2.5 -21.5t3.5 -21.5q8 -58 15 -116t15 -116q8 48 14 95t12 95q3 22 7 43t6 43q2 14 3 28t4 28q2 9 6.5 18t15.5 9z" />
    <glyph glyph-name="x" unicode="x" horiz-adv-x="309" 
d="M-1 36q0 4 5 19.5t13 36.5t18 45t19 46t16 39.5t10 25.5q2 3 4.5 10.5t2.5 10.5q0 1 -4.5 14.5t-11.5 33t-15.5 42.5t-16.5 44t-14 37t-8 21q-5 11 -10 25t-5 27q0 9 6.5 16.5t16.5 7.5t14.5 -7t7.5 -15q16 -46 31 -91t34 -90l75 191q3 7 7.5 13t12.5 6t15 -4.5t14 -8.5
l1 -2q6 -3 14 -8.5t8 -13.5q0 -5 -2.5 -9.5t-4.5 -9.5q-11 -20 -18.5 -40.5t-17.5 -40.5v-1q-16 -24 -24 -53q-8 -26 -19 -56t-21 -55q4 -8 7 -17q2 -5 4.5 -9t4.5 -9q3 -7 5.5 -14t5.5 -15q1 -2 1.5 -3.5t1.5 -3.5q2 -6 4 -12.5t5 -12.5q4 -11 8 -20.5t8 -19.5
q3 -9 7.5 -20.5t9 -24t7.5 -24t3 -20.5q0 -10 -7.5 -13t-15.5 -3q-11 0 -15.5 7.5t-7.5 15.5q-5 13 -9.5 26t-9.5 26v1l-27 72q-3 8 -5.5 16.5t-7.5 16.5q-14 -33 -24.5 -67t-26.5 -66q-5 -10 -8 -20.5t-11 -18.5q-3 -3 -7 -5.5t-9 -2.5t-10 2.5t-10 5.5h-1q-8 4 -15.5 10
t-7.5 16z" />
    <glyph glyph-name="y" unicode="y" horiz-adv-x="324" 
d="M122 105q5 31 9.5 61t9.5 61q2 17 4.5 34t6.5 34q5 23 7 46.5t6 46.5l18 108l4 20t3 20l8 7q11 -2 28 -3.5t27 -6.5q11 -6 11 -22q0 -12 -3.5 -24t-5.5 -23q-5 -24 -8.5 -48t-8.5 -48l-107 -602q-2 -9 -6.5 -15t-14.5 -6q-7 0 -15.5 0.5t-16 2.5t-13 7.5t-5.5 14.5
q0 17 4.5 35t9.5 35q2 8 6.5 28t9 42t7.5 41.5t3 27.5q0 30 -6 59.5t-14 58.5q-2 8 -3 16t-3 16q-5 20 -9.5 41t-9.5 41q-11 51 -19.5 103t-19.5 103q-5 23 -9.5 48t-4.5 49q0 8 5.5 16t14.5 8q11 0 17 -8.5t7 -18.5q11 -103 32.5 -203.5t43.5 -202.5z" />
    <glyph glyph-name="z" unicode="z" horiz-adv-x="302" 
d="M40 547q12 2 24 1.5t24 -0.5q15 0 30.5 1.5t30.5 1.5q10 0 20 -0.5t20 -0.5h29q11 0 20 -13t9 -23q0 -4 -4 -17t-10 -30.5t-13 -37.5t-14 -38t-12.5 -32.5t-7.5 -20.5q-8 -20 -14.5 -41t-14.5 -42q-19 -54 -38.5 -106t-40.5 -104h18q14 0 27 0.5t27 0.5q17 0 34.5 -1
t34.5 -1q9 0 16.5 -5.5t7.5 -15.5q0 -8 -4.5 -14t-12.5 -6h-95q-4 0 -8 0.5t-8 0.5q-23 0 -46 -2t-46 -2q-6 0 -10.5 1t-9.5 6v1q-3 4 -3 11q0 14 7.5 33.5t12.5 33.5q5 12 9.5 26.5t7.5 27.5q7 27 17 54t20 53l12 36q20 58 43 114.5t46 113.5q-4 0 -8 0.5t-8 0.5
q-17 0 -32.5 -1.5t-32.5 -1.5h-46h-12.5t-14 2t-11 6t-4.5 12q0 4 3 7l-1 -1q6 7 10.5 9t8.5 2t7 -0.5t6 1.5z" />
    <glyph glyph-name="braceleft" unicode="{" horiz-adv-x="207" 
d="M6 373q0 13 8.5 19.5t18.5 10t18.5 6.5t8.5 10q0 5 -3 12t-5 12q-13 32 -21 70.5t-8 73.5q0 25 5 50t15.5 47t27 40t40.5 30q12 6 26 6q6 0 10.5 -3.5t4.5 -10.5q0 -9 -6 -16t-14 -13t-16.5 -12.5t-12.5 -13.5q-13 -22 -17.5 -56t-4.5 -59q0 -41 9 -79.5t9 -79.5
q0 -25 -11 -32.5t-31 -15.5q17 -21 30 -40t13 -48q0 -17 -6 -33t-10 -33q-9 -38 -14.5 -81t-5.5 -81q0 -35 9 -67t25 -62q8 -14 21 -30.5t13 -33.5q0 -11 -7.5 -15.5t-17.5 -4.5q-11 0 -21 7q-11 8 -21.5 26t-20 39t-17 41t-10.5 33q-6 23 -7 47t-1 47q0 39 6 78.5t17 77.5
q1 5 4.5 14t7 18.5t6 17.5t2.5 12q0 9 -7 18t-16 18t-16 18.5t-7 20.5z" />
    <glyph glyph-name="bar" unicode="|" horiz-adv-x="137" 
d="M58 -91q0 -19 -4 -25t-23 -6q-9 0 -16 4t-7 15v97q0 75 1 150.5t1 150.5v142q0 83 -1 165.5t-1 165.5v18t2 11.5t8.5 6.5t18.5 2q13 0 16.5 -6t3.5 -17v-145q0 -79 -0.5 -158t-0.5 -158q0 -104 1 -206.5t1 -206.5z" />
    <glyph glyph-name="braceright" unicode="}" horiz-adv-x="225" 
d="M152 373q0 -11 -7 -20.5t-16 -18.5t-16 -18t-7 -18q0 -4 2.5 -12t6 -17.5t6.5 -18.5t5 -14q23 -81 23 -163q0 -22 -1 -44t-7 -43q-4 -13 -11.5 -33t-17 -41t-20 -39t-20.5 -26q-10 -7 -21 -7q-10 0 -17.5 4.5t-7.5 15.5q0 17 12.5 33.5t20.5 30.5q16 31 25.5 62.5
t9.5 66.5q0 39 -5.5 81.5t-14.5 80.5q-4 17 -10 33t-6 33q0 29 13 48t30 40q-20 8 -31 15.5t-11 32.5q0 41 9 79.5t9 79.5q0 26 -5 59.5t-18 55.5q-4 7 -12 13.5t-16 12.5t-14 13t-6 16q0 7 4.5 10.5t10.5 3.5q14 0 26 -6q24 -12 40.5 -30t27 -40t15.5 -47t5 -50
q0 -36 -10 -73t-20 -71q-2 -5 -4.5 -12t-2.5 -12q0 -7 8.5 -10t18.5 -6.5t18.5 -10t8.5 -19.5z" />
    <glyph glyph-name="asciitilde" unicode="~" horiz-adv-x="312" 
d="M19 273q-7 0 -11.5 5.5t-4.5 11.5t6.5 17.5t15 23t17.5 21.5t14 15q8 6 16.5 10.5t18.5 4.5q17 0 27 -11t17.5 -24t16 -24t22.5 -11q6 0 12.5 5t11.5 12t8.5 15t4.5 13t2 11.5t3.5 12t6 9.5t10.5 4q8 0 13 -4t5 -12q0 -14 -4.5 -27t-9.5 -26q-4 -8 -7.5 -17.5t-8.5 -17.5
q-9 -12 -22 -22t-30 -10q-20 0 -31.5 11.5t-19 26.5t-14 30t-15.5 22q-11 0 -21 -11.5t-18.5 -25.5t-16 -26t-14.5 -12z" />
    <glyph glyph-name="exclamdown" unicode="&#xa1;" horiz-adv-x="136" 
d="M2 -8q0 65 4.5 129t4.5 128q0 10 -1 20t1 18.5t8.5 13.5t21.5 5q9 0 17.5 -4t8.5 -15q0 -14 1 -28.5t1 -29.5q0 -55 4 -109t4 -109v-107q0 -42 0.5 -83t-3.5 -83q-2 -14 -11.5 -20.5t-22.5 -6.5q-14 0 -26 8t-12 23t0.5 30.5t1.5 30.5h1q0 48 -1.5 94.5t-1.5 94.5z
M34 471q19 0 32.5 -14t13.5 -33q0 -17 -11.5 -30t-28.5 -13q-43 0 -43 44q0 15 10 30.5t27 15.5z" />
    <glyph glyph-name="cent" unicode="&#xa2;" horiz-adv-x="283" 
d="M101 -92q0 23 0.5 45.5t0.5 45.5q-24 14 -42 43.5t-30 64t-18 69.5t-6 62q0 34 4 76.5t14.5 84t30 77t50.5 56.5q4 8 4.5 10t0.5 11q0 12 -1 24t-1 24q0 11 3 24t18 13q9 0 12.5 -5t4 -12.5t0 -15.5t-0.5 -13q0 -14 1 -28.5t-1 -28.5q15 -9 24 -23t13.5 -30.5t5.5 -34
t1 -33.5q0 -9 -2.5 -20t-15.5 -11q-11 0 -16 8t-5 17t0.5 17.5t0.5 17.5q0 10 -2 20t-7 18q-3 -31 -3.5 -62t-0.5 -62q0 -81 1 -160t1 -160q22 9 29 30.5t9 44t5 40t17 17.5q11 0 16.5 -11t5.5 -21q0 -19 -3.5 -42.5t-12.5 -44.5t-24.5 -36.5t-38.5 -18.5v-102
q0 -6 -7 -10.5t-12 -4.5q-11 0 -17 10t-6 20zM103 58q-2 94 -3 187.5t-1 187.5q-17 -62 -19.5 -126t-2.5 -127q0 -32 4.5 -62.5t21.5 -59.5z" />
    <glyph glyph-name="sterling" unicode="&#xa3;" horiz-adv-x="362" 
d="M225 563q-8 0 -15 8t-7 16q0 11 4.5 22t4.5 23q0 8 -3.5 22t-9.5 27.5t-14 23.5t-18 10q-5 0 -8.5 -2t-7.5 -5q-23 -20 -32.5 -51t-9.5 -60q0 -100 6 -200h9q12 -1 24.5 0.5t25.5 1.5q8 0 18 -5t10 -15q0 -8 -4.5 -13t-11.5 -7t-14.5 -2.5t-13.5 -0.5q-11 0 -20.5 0.5
t-20.5 -0.5q-2 -36 -3.5 -72.5t-6.5 -72.5q-4 -34 -10 -67l-12 -66q22 5 40 5t32.5 -3t27.5 -7.5t26 -10t29 -9.5q4 -1 8.5 -2t9.5 -1q13 0 17 7t13 7q10 0 15.5 -9.5t5.5 -17.5t-5.5 -13.5t-13 -9t-16 -5t-14.5 -1.5q-16 0 -32 5t-32 11.5t-33 11.5t-36 5q-22 0 -33.5 -6.5
t-18 -14.5t-11.5 -14.5t-13 -6.5q-17 0 -26 11t-9 28q0 9 3 22t7 27t8 27.5t6 23.5q6 28 8.5 58t2.5 59q0 26 -2 53t-2 53q-6 1 -13.5 2t-14.5 3.5t-11.5 7.5t-4.5 13q0 19 18 19q6 0 12 -0.5t12 -1.5v7q-1 10 -2.5 19.5t-2.5 18.5q-4 24 -6.5 48t-2.5 48q0 23 2.5 48
t9 49.5t17 46.5t26.5 40q6 7 14 11l16 8q10 5 19 8t20 3q22 0 40 -14t30.5 -35t19 -44.5t6.5 -42.5q0 -5 -1.5 -15t-4.5 -20t-8 -17.5t-12 -7.5z" />
    <glyph glyph-name="currency" unicode="&#xa4;" horiz-adv-x="377" 
d="M290 591q9 0 17 -6.5t8 -16.5q0 -7 -7 -18t-16.5 -23.5t-18 -24t-11.5 -20.5q10 -22 11.5 -41t1.5 -42q0 -13 -3 -29t-8.5 -31.5t-12.5 -30t-14 -25.5q3 -6 11.5 -19t16.5 -27.5t14.5 -27t6.5 -17.5q0 -10 -7 -16t-16 -6q-15 0 -22 15q-2 3 -2.5 6.5t-1.5 6.5
q-5 15 -14 28t-17 27q-13 -8 -26 -13.5t-29 -5.5q-13 0 -25.5 3t-24.5 8q-12 -17 -21.5 -33.5t-16.5 -35.5q-5 -16 -19 -16q-9 0 -19 5.5t-10 16.5q0 6 7.5 19.5t16.5 28t16.5 26.5t7.5 16l-1 1q-15 22 -24.5 51.5t-9.5 55.5q0 25 9 46t20 43q-12 18 -23.5 35t-25.5 34
q-7 9 -7 18q0 13 10 17q2 0 4.5 0.5t4.5 0.5q15 0 26 -14l42 -54q31 24 72 24q20 0 35.5 -5t32.5 -14q11 17 22 35t23 35q7 10 17 10zM235 403q0 16 -2 30.5t-8.5 26t-18 18.5t-30.5 7q-9 0 -16.5 -1.5t-15.5 -6.5q-11 -8 -18.5 -21t-12 -28.5t-6.5 -31t-2 -28.5
q0 -11 2.5 -25.5t8 -28t14.5 -23t23 -9.5q10 0 19 3t17 8q10 6 18.5 20t14.5 30.5t9.5 32.5t3.5 27z" />
    <glyph glyph-name="yen" unicode="&#xa5;" horiz-adv-x="368" 
d="M307 736q0 -6 -3.5 -18.5t-8 -26t-9 -26.5t-6.5 -20q-4 -12 -8 -24.5t-8 -24.5q-6 -17 -15.5 -42t-18.5 -51t-16 -50.5t-8 -40.5q13 0 25 0.5t25 0.5q14 0 29.5 -4t15.5 -22q0 -13 -8.5 -20t-20.5 -7q-17 0 -32.5 0.5t-32.5 0.5v-111q9 0 18 -0.5t18 -0.5q6 0 12.5 0.5
t12.5 0.5q12 0 23.5 -3.5t11.5 -18.5q0 -7 -1 -10q-3 -8 -8 -10t-13 -3q-19 -2 -37.5 -1.5t-37.5 -0.5v-41q0 -32 1.5 -63t1.5 -63q0 -20 -15.5 -28t-32.5 -8q-37 0 -37 36q0 28 0.5 55.5t0.5 55.5v28t-1 28q-20 -1 -39 -1h-39t-20 22q0 17 10.5 21t24.5 4q15 0 30.5 -0.5
t30.5 0.5q2 29 2 57v57q-5 0 -18.5 -0.5t-28 0t-26.5 2t-15 6.5q-4 5 -4 14q0 20 12 24.5t29 4.5q11 0 21 -0.5t21 -0.5h9q0 8 -4 21.5t-10 27.5t-12 27.5l-10 22.5q-20 45 -35.5 90.5t-33.5 90.5q-4 11 -9 20t-5 20q0 9 4 16t15 7q10 0 18 -6t12 -15q7 -15 11 -31t10 -32
q11 -29 22 -58.5t23 -58.5q10 -25 21 -49t22 -49q10 25 18.5 50t17.5 50l10 24t9 24l27 90q7 25 15 46q3 7 8.5 13t13.5 6q10 0 17.5 -7t7.5 -17z" />
    <glyph glyph-name="brokenbar" unicode="&#xa6;" horiz-adv-x="122" 
d="M62 256q0 -60 -3 -120t-3 -120v-45.5t-1 -45.5q0 -11 -2.5 -23.5t-17.5 -12.5q-12 0 -21.5 4t-9.5 19q0 77 3.5 153t3.5 153q0 9 -1 19.5t0.5 18.5t7.5 13.5t20 5.5q10 0 17 -4t7 -15zM4 408q0 77 3.5 153t3.5 153q0 9 -1 19t0.5 18.5t7.5 14t19 5.5q11 0 18 -4t7 -16
q0 -60 -3 -119.5t-3 -119.5v-45.5t-1 -45.5q0 -14 -3 -25t-21 -11q-11 0 -19 5t-8 18z" />
    <glyph glyph-name="section" unicode="&#xa7;" horiz-adv-x="238" 
d="M172 29q0 -21 -2.5 -48t-10.5 -51t-24.5 -40.5t-44.5 -16.5q-9 0 -19 3.5t-17 9.5q-10 9 -17 25.5t-11.5 34.5t-6.5 36t-2 32v10.5t1.5 12.5t5 10t9.5 4q13 0 15.5 -17t3.5 -39.5t5 -44.5t21 -33q4 -2 9 -2q3 0 8.5 4.5t7.5 6.5q15 14 18.5 38.5t3.5 44.5q0 35 -9 58.5
t-22.5 41.5t-29.5 34t-29.5 36.5t-22.5 48t-9 69.5q0 47 8.5 88t39.5 78q-9 13 -15.5 30t-11 35t-7 36t-2.5 34q0 18 3 43.5t11.5 49t23.5 40t39 16.5q20 0 32.5 -11.5t19.5 -28t9.5 -36t2.5 -34.5q0 -9 -1.5 -22.5t-14.5 -13.5q-12 0 -14 13t-2 21q0 13 -0.5 27t-9.5 24
q-3 4 -8.5 8t-10.5 4q-11 0 -17.5 -13.5t-10 -31.5t-5 -35.5t-1.5 -24.5q0 -33 12.5 -63.5t39.5 -50.5q10 -8 15.5 -13t11.5 -16q17 -30 25.5 -69.5t8.5 -74.5q0 -39 -10 -78t-31 -72q20 -26 29.5 -60.5t9.5 -66.5zM103 179q17 29 24.5 62.5t7.5 67.5q0 15 -1 32.5t-5.5 34
t-13 30.5t-22.5 23q-9 -9 -16 -25t-12 -34t-7.5 -36t-2.5 -31q0 -25 5 -45t17 -42q5 -10 11.5 -19.5t14.5 -17.5z" />
    <glyph glyph-name="dieresis" unicode="&#xa8;" horiz-adv-x="237" 
d="M161 844q0 -14 -9 -23.5t-23 -9.5q-12 0 -18.5 10t-6.5 21q0 14 7.5 22t21.5 8q11 0 19.5 -8.5t8.5 -19.5zM63 844q0 -14 -9 -23.5t-23 -9.5q-12 0 -18.5 10t-6.5 21q0 14 7.5 22t21.5 8q11 0 19.5 -8.5t8.5 -19.5z" />
    <glyph glyph-name="copyright" unicode="&#xa9;" horiz-adv-x="505" 
d="M235 175q-20 0 -38 7.5t-29 24.5q-24 36 -36 79.5t-12 86.5q0 21 4.5 53.5t16 63t30 53t45.5 22.5q20 0 34.5 -9t23.5 -23.5t13 -32t4 -34.5q0 -5 -0.5 -14t-3 -18t-6.5 -15.5t-11 -6.5q-8 0 -14.5 4.5t-6.5 13.5q0 11 3 22t3 22q0 6 -1 14.5t-4 16t-8 13t-13 5.5
q-2 0 -5.5 -2t-5.5 -4q-5 -5 -10 -14t-9 -20t-6.5 -21.5t-3.5 -17.5q-3 -21 -3.5 -42.5t-0.5 -42.5q0 -37 11 -78q1 -6 5 -17t9 -22t11.5 -19.5t13.5 -8.5q15 0 23.5 16t10.5 28q2 7 4 12t10 5q10 0 16 -8t6 -17q0 -5 -1 -7q-8 -29 -22 -48.5t-47 -19.5zM227 692
q87 0 138 -41t62 -129q3 -23 4 -47t1 -47q0 -36 -3 -81.5t-12 -90.5t-26 -85t-46 -65q-26 -22 -62 -32t-69 -10q-16 0 -31.5 3.5t-30.5 8.5q-59 22 -88.5 63t-43.5 100q-8 33 -13.5 66.5t-5.5 68.5q0 25 2 50t5 50q5 46 21.5 86t44 69.5t65.5 46t88 16.5zM254 647
q-20 0 -38.5 -5.5t-35.5 -16.5q-36 -25 -56 -55.5t-29.5 -65.5t-12 -73t-2.5 -78q0 -15 4 -37t10 -46t13 -45.5t14 -34.5q11 -21 25 -37t35 -27q12 -6 24.5 -11.5t26.5 -6.5q2 1 4.5 1t4.5 1q37 9 60 28t37.5 44t22.5 56t14 64q6 32 6.5 65t0.5 65q0 36 -2.5 74t-14.5 69.5
t-38 51.5t-73 20z" />
    <glyph glyph-name="ordfeminine" unicode="&#xaa;" horiz-adv-x="273" 
d="M201 488q0 -20 -12.5 -26t-29.5 -6q-14 0 -18.5 7t-5.5 20q-9 -13 -22 -21t-29 -8q-21 0 -40 13q-24 16 -32 38t-8 49q0 21 4 47.5t14 49t28 38t45 15.5q8 0 18.5 -2t17.5 -6q-1 5 -2 15.5t-3.5 21t-7.5 18.5t-12 8q-5 0 -9 -3q-13 -7 -19 -17.5t-10 -20.5t-8 -17t-12 -7
q-9 0 -16 8.5t-7 16.5v5q1 5 3.5 11.5t4.5 11.5q12 29 30 42t50 13q31 0 48 -13.5t25.5 -34.5t10.5 -46t2 -48q0 -22 1 -44t1 -44v-84zM81 496q12 0 20.5 14.5t14.5 33t8.5 37.5t2.5 28q0 7 -0.5 13.5t-1.5 13.5q-1 11 -4.5 18.5t-17.5 7.5q-19 0 -30.5 -12t-18 -29.5
t-8.5 -37t-2 -33.5q0 -16 3.5 -29t19.5 -21q8 -4 14 -4z" />
    <glyph glyph-name="guillemotleft" unicode="&#xab;" horiz-adv-x="398" 
d="M185 60q-7 0 -13 8.5t-10 13.5q-20 28 -40.5 55.5t-40.5 54.5q-18 24 -35 48.5t-34 48.5q-5 7 -5 12q0 2 1 5.5t2 5.5q9 19 22 37.5t25 35.5l40 60t39 61q5 8 10.5 16t14.5 13l4 2t4 1t7 -1.5t10 -4t9.5 -4.5t6.5 -3q4 -3 5.5 -5.5t1.5 -7.5q0 -9 -5.5 -15.5t-10.5 -13.5
q-14 -18 -26 -37t-26 -38q-20 -29 -40 -58.5t-39 -59.5q4 -10 16.5 -28t29 -40t34 -45.5t32 -44t24 -35t9.5 -18.5q0 -5 -8.5 -12t-13.5 -7zM341 514q0 -8 -4 -15.5t-9 -13.5q-1 -1 -1.5 -2t-1.5 -2q-11 -19 -24 -37l-26 -36q-21 -29 -41.5 -58.5t-39.5 -59.5q5 -8 17.5 -26
t28.5 -40t33.5 -46t32 -45t24 -35.5t9.5 -18.5q0 -5 -8 -12t-13 -7q-6 0 -13 8.5t-10 13.5q-36 54 -75 103.5t-75 103.5q-5 7 -5 12q0 4 8.5 18.5t21.5 35t28.5 44t30 45.5t25.5 39t16 24q5 8 10 15.5t13 12.5l4 2t4 1q3 0 10 -2t13.5 -5t11.5 -7.5t5 -9.5z" />
    <glyph glyph-name="logicalnot" unicode="&#xac;" horiz-adv-x="437" 
d="M1 330q0 8 1 18.5t8 15.5q4 3 9.5 3.5t10.5 0.5q60 0 118.5 4t118.5 4q17 0 33 0.5t33 0.5q15 0 23 -5.5t12 -14.5t5 -20t1 -23q0 -19 -1.5 -37.5t-1.5 -38.5q0 -6 0.5 -15t-0.5 -17.5t-5.5 -15t-13.5 -6.5q-11 0 -15.5 7.5t-4.5 16.5q0 22 1.5 44t1.5 44v8t-1 8h-8
q-51 0 -102.5 -1t-102.5 -3q-25 -2 -49.5 -3.5t-49.5 -1.5q-17 0 -19 6.5t-2 20.5z" />
    <glyph glyph-name="uni00AD" unicode="&#xad;" horiz-adv-x="293" 
d="M244 202q0 -13 -12 -13q-26 0 -44 -0.5t-34.5 -0.5t-34.5 -0.5t-44 -0.5h-60q-11 0 -14 5.5t-3 16.5q0 10 1.5 14.5t13.5 4.5q31 0 54.5 0.5t45 0.5t44.5 0.5t55 0.5q19 0 25.5 -3.5t6.5 -24.5z" />
    <glyph glyph-name="registered" unicode="&#xae;" horiz-adv-x="334" 
d="M137 306q-19 0 -38 8q-48 20 -73 64t-25 95q0 20 1.5 38.5t3.5 38.5q5 50 28.5 82t74.5 44q18 5 34 5q19 0 40 -4.5t39.5 -14t32.5 -24t20 -34.5q5 -17 7.5 -34.5t2.5 -34.5q0 -8 -1 -15.5t-2 -15.5q-3 -27 -10 -50.5t-17 -49.5l-8 -20t-9 -20q-15 -27 -42.5 -42.5
t-58.5 -15.5zM250 536q0 14 -2.5 28t-4.5 28q-1 14 -12 26q-12 14 -30.5 23t-36.5 9q-5 0 -10.5 -1t-10.5 -3q-28 -10 -44 -27.5t-24 -40t-10 -48t-2 -50.5q0 -15 3.5 -34.5t10.5 -39t17.5 -35.5t24.5 -23q3 -2 14 -6t14 -4q1 0 2 0.5t2 0.5q17 5 27.5 11t20.5 20
q9 14 18.5 35.5t16.5 44.5t11.5 46t4.5 40zM160 611q11 0 22.5 -3t21 -9.5t15.5 -16t6 -22.5q0 -11 -6.5 -23.5t-16.5 -23.5t-21.5 -19.5t-21.5 -11.5l14 -14t18 -19.5t15.5 -20.5t6.5 -17q0 -5 -3.5 -9.5t-9.5 -4.5t-11 4.5t-9.5 10.5t-8.5 12t-7 10q-7 7 -13 14t-14 14
q0 -14 0.5 -27t0.5 -27q0 -11 -5 -13.5t-14 -2.5t-16.5 2t-7.5 14q0 42 -0.5 84.5t-0.5 84.5q0 9 7.5 15.5t18 10.5t22 6t18.5 2zM135 503q8 3 18 9t19 13.5t15.5 17t6.5 18.5q0 11 -12.5 15t-20.5 4t-16.5 -1.5t-8.5 -11.5v-32t-1 -32z" />
    <glyph glyph-name="macron" unicode="&#xaf;" horiz-adv-x="298" 
d="M201 857q7 0 11 -5t4 -12q0 -12 -6.5 -15.5t-17.5 -4.5q-24 -2 -48 -1t-48 1q-18 0 -36 -0.5t-36 -0.5q-19 0 -19 19t20 19h176z" />
    <glyph glyph-name="degree" unicode="&#xb0;" horiz-adv-x="257" 
d="M106 473q-32 0 -52.5 11t-32.5 29.5t-17 43.5t-5 53q0 19 2.5 38.5t9.5 36.5t19 31t32 22q16 7 29 7q14 0 28.5 -1.5t26.5 -7.5q27 -14 40 -38.5t13 -53.5q0 -18 -5.5 -47t-17 -56.5t-29 -47.5t-41.5 -20zM52 612q0 -11 2 -27.5t7.5 -32.5t14.5 -27t24 -11q17 0 29.5 13
t20.5 31.5t12 38.5t4 33v21q0 22 -14.5 40.5t-37.5 18.5q-15 0 -28 -10q-23 -17 -28.5 -39.5t-5.5 -48.5z" />
    <glyph glyph-name="plusminus" unicode="&#xb1;" horiz-adv-x="397" 
d="M23 265h-10t-8 5q-1 1 -1.5 6.5t-1 11.5t-0.5 11.5v7.5q0 12 1.5 18t15.5 6h59.5t59.5 1v60q0 22 -2.5 43t-2.5 43q0 10 5.5 20.5t16.5 10.5t16 -11.5t5 -20.5q0 -36 0.5 -72.5t0.5 -72.5q20 1 40.5 1.5t40.5 0.5h24.5t24.5 -2q11 -2 13 -10t2 -17v-13t-1.5 -13t-5.5 -10
t-12 -4q-32 0 -63 -0.5t-63 -0.5v-132q0 -8 1.5 -14.5t1.5 -14.5q0 -11 -4.5 -20.5t-17.5 -9.5q-8 0 -12 4.5t-6 10.5t-2.5 13t-0.5 12q0 15 1.5 30t1.5 30q0 23 -0.5 45.5t-0.5 45.5q-19 0 -37 0.5t-37 0.5h-42zM45 1q-11 0 -18.5 -1t-12.5 0.5t-7.5 8t-2.5 20.5q0 9 8 10
t14 1q66 0 132 1t132 1q17 0 19.5 -7t2.5 -21q0 -5 -4.5 -9t-9.5 -4q-53 0 -105 -1t-105 -1q-11 0 -21.5 1t-21.5 1z" />
    <glyph glyph-name="uni00B2" unicode="&#xb2;" horiz-adv-x="220" 
d="M9 793q0 4 2 12q4 12 11 25t17 23t22.5 16.5t26.5 6.5q23 0 40 -16t17 -39v-13q-1 -19 -8.5 -42t-14.5 -41q-16 -42 -30.5 -84t-31.5 -84q12 2 23.5 2h23.5q10 0 22 -3t12 -16t-9.5 -18t-20.5 -5q-18 0 -36 -0.5t-35 -3.5q-10 -2 -15 -2q-11 0 -17.5 7.5t-6.5 18.5
q0 12 10.5 45.5t24 72.5t26.5 75t18 52q3 8 9 22.5t6 22.5q0 3 -0.5 6.5t-5.5 3.5q-10 0 -18 -10t-15 -22t-14 -22t-14 -10q-8 0 -13.5 6t-5.5 14z" />
    <glyph glyph-name="uni00B3" unicode="&#xb3;" horiz-adv-x="237" 
d="M60 589q14 0 22.5 7t13.5 18t7 23.5t2 23.5q0 15 -7 30.5t-25 15.5q-6 0 -11.5 -1.5t-11.5 -1.5q-8 0 -15.5 5t-7.5 14q0 11 10 16t19 6q23 2 29 10t14 28q3 9 6 17.5t3 18.5q0 14 -5 24t-22 10q-12 0 -18 -6.5t-10.5 -14t-9.5 -13.5t-15 -6q-8 0 -12 6t-4 14
q0 13 10.5 27.5t21.5 21.5q8 5 23 8t24 3q35 0 54.5 -20t19.5 -55q0 -29 -10.5 -48t-25.5 -42q5 -4 11.5 -9t9.5 -10q8 -12 11.5 -28t3.5 -30q0 -25 -11.5 -54t-36.5 -40q-11 -5 -24 -6.5t-25 -1.5q-22 0 -38 7.5t-26 28.5q-2 4 -2 10q0 8 5.5 14t13.5 6q9 0 13 -4t6.5 -9
t6 -9t13.5 -4z" />
    <glyph glyph-name="acute" unicode="&#xb4;" horiz-adv-x="171" 
d="M17 786q-8 0 -13.5 5.5t-5.5 13.5q0 6 5 15t12 18t14 17.5t11 13.5t9 14t10 14q4 5 9 9.5t11 4.5q7 0 13 -5.5t6 -12.5q0 -3 -9 -17t-20 -30t-21.5 -30.5t-14.5 -19.5q-3 -4 -7 -7t-9 -3z" />
    <glyph glyph-name="mu" unicode="&#xb5;" horiz-adv-x="329" 
d="M211 52q-4 -12 -9.5 -23.5t-13 -21.5t-18.5 -16t-25 -6q-26 0 -42 17.5t-25 40.5q-1 -34 -1 -67v-67q0 -42 0.5 -82t0.5 -82q0 -15 -13.5 -29.5t-28.5 -14.5q-11 0 -17 6t-9 15t-3.5 18.5t-0.5 17.5v438q0 8 0.5 16.5t0.5 16.5q2 34 2 67t1 67q1 16 0.5 32t1.5 32
q1 15 10.5 24.5t25.5 9.5q21 0 36.5 -4t15.5 -31q0 -42 -3.5 -82t-3.5 -82q0 -18 1 -43t3.5 -51.5t5.5 -51.5t7 -41q3 -14 9.5 -27t23.5 -13q16 0 26.5 25.5t17 65t9.5 87.5t4.5 93t1.5 81v53q0 9 6 12.5t14 3.5t14 -2.5t6 -12.5v-84q0 -2 -0.5 -2.5t-0.5 -2.5
q-2 -31 -3 -62.5t-1 -62.5q0 -30 2 -60.5t4 -60.5q2 -25 6.5 -49t9.5 -48q2 -8 2 -12q0 -8 -5 -16t-14 -8q-10 0 -16 9.5t-9 22.5t-4 26.5t-2 20.5z" />
    <glyph glyph-name="paragraph" unicode="&#xb6;" horiz-adv-x="286" 
d="M234 616q0 -42 -0.5 -83.5t-0.5 -83.5q0 -32 -2.5 -65t-2.5 -65v-105q0 -27 -2 -54t-2 -54q0 -25 1 -49t1 -49q0 -8 -0.5 -16.5t-0.5 -16.5v-26.5t-3 -29.5t-11 -24.5t-23 -10.5q-13 0 -21 6t-8 20q0 165 4 327t4 327q0 8 -0.5 16.5t-0.5 16.5q0 23 10.5 35t34.5 12
q16 0 19.5 -7t3.5 -21zM123 608q0 -28 -2.5 -55t-2.5 -55q0 -27 -1.5 -54t-1.5 -54q0 -87 -1.5 -173t-1.5 -173q0 -37 0.5 -73.5t0.5 -73.5l-5 -6v-1q-2 -2 -6 -3.5t-7 -1.5q-13 0 -16 11t-3 21v113q0 45 1 90.5t1 90.5q0 9 -0.5 18t-0.5 18q-17 11 -28.5 21.5t-21.5 27.5
q-17 30 -22 65.5t-5 69.5q0 24 3 60t13.5 69t30.5 57t53 24q14 0 18.5 -10.5t4.5 -22.5z" />
    <glyph glyph-name="periodcentered" unicode="&#xb7;" horiz-adv-x="145" 
d="M39 323q-17 0 -27 15.5t-10 30.5q0 44 43 44q17 0 28.5 -13t11.5 -30q0 -18 -13.5 -32.5t-32.5 -14.5z" />
    <glyph glyph-name="cedilla" unicode="&#xb8;" horiz-adv-x="182" 
d="M53 -69q16 0 22.5 11.5t6.5 25.5q0 11 -8 19t-19 8t-14.5 -5.5t-12.5 -5.5q-11 0 -16.5 8t-5.5 18q0 4 3 16.5t7 26t8.5 24.5t7.5 14t7 3q2 0 2.5 -0.5t2.5 -0.5l2 -2v1q6 -2 13 -5t7 -11q0 -3 -2 -8.5t-4.5 -11.5t-4.5 -12t-3 -10q32 3 50.5 -19.5t18.5 -52.5
q0 -29 -17.5 -50t-47.5 -21q-8 0 -17.5 2.5t-17.5 7t-13 11.5t-5 17q0 7 5 11.5t12 4.5q6 0 9 -2t6 -5t7 -5t11 -2z" />
    <glyph glyph-name="uni00B9" unicode="&#xb9;" horiz-adv-x="148" 
d="M22 573q0 61 3 122t5 122q-6 -4 -11 -4q-6 0 -14 6q-3 5 -2 10q7 11 13 23t14 23q5 8 14 9q2 0 4 0.5t4 0.5q20 0 24 -13.5t4 -29.5q0 -39 -1.5 -78t-2.5 -78q-1 -18 -1 -35.5t-1 -35.5q-1 -11 -0.5 -22.5t-1.5 -22.5t-12.5 -11.5t-18.5 -0.5t-13.5 2.5t-5.5 12.5z" />
    <glyph glyph-name="ordmasculine" unicode="&#xba;" horiz-adv-x="239" 
d="M91 749q21 0 36 -12t25 -30t14.5 -38.5t4.5 -37.5q0 -21 -2 -55.5t-10.5 -66.5t-26 -55.5t-47.5 -23.5q-26 0 -42 14t-26 35t-13.5 45t-3.5 44t4 51t14.5 60t28 49.5t44.5 20.5zM76 481q18 0 28 18t15 42t6.5 48.5t1.5 36.5q0 9 -1.5 21t-5.5 22t-11.5 17t-19.5 7
q-15 0 -26 -13.5t-17.5 -32t-9.5 -37.5t-3 -31q0 -10 1 -26.5t5.5 -32.5t13 -27.5t23.5 -11.5z" />
    <glyph glyph-name="guillemotright" unicode="&#xbb;" horiz-adv-x="411" 
d="M7 514q0 4 5 8.5t11.5 8t13.5 5.5t10 2q2 0 4.5 -1t4.5 -2q8 -5 13 -12.5t10 -15.5q4 -7 15.5 -24t26 -38.5t30 -45.5t28 -44.5t21 -35t8.5 -18.5q0 -5 -5 -12q-24 -36 -50 -70.5t-52 -69.5q-12 -17 -23.5 -33.5t-23.5 -33.5q-3 -5 -11 -13.5t-13 -8.5t-13 7t-8 12
q0 4 9.5 18.5t24 35.5t32 45t34 46t29 40t17.5 26q-20 30 -40.5 59.5t-40.5 58.5l-26 36t-25 37q-1 2 -3 4q-5 6 -9 13.5t-4 15.5zM163 60q-5 0 -13.5 7t-8.5 12q0 4 9.5 18.5t24.5 35t32.5 44t33.5 45.5t28.5 40t17.5 28q-20 30 -39.5 59.5t-40.5 58.5q-13 18 -25 38.5
t-27 36.5q-5 5 -10.5 13t-5.5 16q0 5 1.5 7.5t5.5 5.5q4 2 17 7.5t17 5.5q2 0 4 -1l4 -2q8 -5 13.5 -13t10.5 -16q20 -31 40 -61l40 -60q12 -18 24 -35.5t22 -37.5q3 -6 3 -11t-5 -12q-17 -24 -33.5 -48.5t-34.5 -48.5q-20 -27 -40.5 -54.5t-40.5 -55.5q-4 -5 -10.5 -13.5
t-13.5 -8.5z" />
    <glyph glyph-name="onequarter" unicode="&#xbc;" horiz-adv-x="392" 
d="M19 670q-5 0 -9 2.5t-7 5.5t-2 9q8 14 15.5 30t18.5 30q6 8 12 9t15 1q22 0 26.5 -15t4.5 -32q0 -72 -2 -143t-4 -143q-1 -14 -0.5 -33.5t-3.5 -31.5q-3 -11 -15.5 -11h-21.5t-15.5 3t-6.5 14q0 32 1.5 64.5t3.5 64.5q2 47 3.5 92.5t2.5 92.5q-7 -9 -16 -9zM30 -2
q-6 0 -16.5 4.5t-10.5 12.5q0 3 1 4q0 3 2.5 12.5t6.5 21t7 22t5 15.5q15 52 28.5 103.5t29.5 103.5q11 37 23.5 72.5t23.5 72.5q11 38 21 75.5t21 75.5q2 8 9 33.5t15.5 53t15.5 50.5t10 25q3 3 8 3q7 0 17.5 -5t10.5 -13q0 -3 -5.5 -20t-12 -38t-13 -40t-8.5 -26
q-13 -42 -24.5 -82.5t-22.5 -82.5q-7 -26 -13 -52t-14 -52q-11 -31 -20 -62t-18 -63q-8 -31 -17.5 -61.5t-19.5 -60.5q-2 -6 -6 -21t-8.5 -30.5t-8.5 -28.5t-6 -16q-5 -6 -11 -6zM307 189q0 -14 -1 -28t-1 -28q0 -22 0.5 -43t-1.5 -43q-2 -25 -12.5 -31t-33.5 -6
q-14 0 -17.5 8t-3.5 20q0 38 1.5 75t1.5 75v3h-20.5h-28t-27 0.5t-17.5 2.5q-6 2 -10.5 6.5t-4.5 11.5q0 6 3 12q4 8 13 27.5t20.5 44.5t24.5 52t24.5 50t20 39.5t12.5 20.5q11 11 22 11q17 0 25.5 -9t11.5 -22.5t3 -28.5v-27q0 -36 -1.5 -72.5t-1.5 -72.5v-12
q10 -2 13 -6.5t3 -13.5q0 -16 -18 -16zM242 226q2 21 3 42t1 41v22v12t-1 12q-16 -32 -31 -63.5t-29 -63.5q11 -1 21 -1.5t21 -0.5h15z" />
    <glyph glyph-name="onehalf" unicode="&#xbd;" horiz-adv-x="422" 
d="M26 377q0 54 3 106.5t5 106.5l2 91q-6 -8 -16 -8q-9 0 -16 7q-3 3 -2 9q3 6 9 17t12.5 22t13.5 20t13 11q4 1 12 1q23 0 28 -15t5 -34q0 -28 -1 -55.5t-2 -55.5q-1 -45 -2.5 -89.5t-2.5 -89.5v-13.5v-17t-0.5 -16.5t-1.5 -12q-3 -11 -15 -11.5t-21 -0.5q-17 0 -20 5
t-3 22zM45 0q-6 0 -17 4.5t-11 12.5q0 3 3 13.5t6.5 22.5t7 23t5.5 16q16 52 29.5 104t29.5 104q11 37 23 72.5t23 72.5q8 25 14 50t14 50q2 6 6.5 24t11 40.5t14 48t14 47t11.5 36t7 16.5q3 3 10 3q6 0 16.5 -5t10.5 -13q0 -2 -5.5 -19t-12 -38.5t-13 -40.5t-8.5 -25
q-13 -42 -24.5 -82.5t-22.5 -82.5q-7 -26 -13.5 -52t-14.5 -52q-11 -32 -20 -64.5t-19 -64.5q-8 -29 -16.5 -59t-18.5 -59q-7 -20 -13 -40.5t-11 -41.5q-2 -7 -4.5 -14t-11.5 -7zM354 396q0 -4 -0.5 -7.5t-0.5 -7.5q-3 -33 -15 -64.5t-23 -62.5q-17 -49 -34 -97t-37 -96
q16 2 31.5 3t31.5 1q12 0 27 -3.5t15 -19.5t-12.5 -21t-25.5 -5q-5 0 -10.5 0.5t-10.5 0.5q-22 0 -43.5 -4.5t-43.5 -4.5q-13 0 -20.5 9.5t-7.5 21.5q0 15 4.5 29t8.5 28q13 45 27.5 88t31.5 87q8 20 15 38.5t14 38.5q4 11 11.5 29.5t7.5 28.5q0 5 -1.5 10t-8.5 5
q-6 0 -13 -5t-13.5 -11.5t-12 -14t-8.5 -12.5q-2 -5 -5 -11.5t-6.5 -12.5t-8 -10.5t-10.5 -4.5q-10 0 -17 7t-7 17q0 5 1 8.5t3 7.5q6 15 15 30.5t20.5 28t26 20.5t33.5 8q29 0 50 -20.5t21 -49.5z" />
    <glyph glyph-name="threequarters" unicode="&#xbe;" horiz-adv-x="504" 
d="M119 4q0 3 3 13.5t6.5 22.5t7 23t5.5 16q16 52 30 104t30 104q11 36 22.5 72t22.5 72q8 25 14 50t13 50q2 6 7 24t11.5 41t14 49t14 47.5t11.5 36t7 15.5q2 2 8 2q7 0 18 -4.5t11 -13.5q0 -3 -5.5 -20t-12 -37.5t-13 -39.5t-8.5 -26l-47 -165q-8 -26 -14 -52t-14 -52
q-11 -32 -20.5 -64.5t-18.5 -65.5l-16 -58t-18 -58q-4 -11 -8 -21.5t-7 -21.5l-3 -12t-4 -16.5t-4 -15.5t-4 -10q-3 -5 -10 -5q-6 0 -17.5 4t-11.5 12zM76 363q16 0 27.5 8.5t18.5 22t10 28.5t3 29q0 10 -2 21t-7.5 21t-13.5 16.5t-20 6.5q-8 0 -14.5 -1.5t-14.5 -1.5
q-10 0 -18.5 6t-8.5 17q0 12 11.5 18t21.5 7q16 1 25 4.5t15 9.5t10 15.5t9 23.5q3 10 6 19.5t3 19.5q0 20 -7.5 34.5t-30.5 14.5q-14 0 -21.5 -8t-13.5 -17.5t-12.5 -17.5t-17.5 -8q-10 0 -14 7.5t-4 15.5q0 11 4.5 20t11.5 17q8 10 13.5 15.5t11.5 9t14 5.5t20 4
q12 3 24 3q42 0 66.5 -24.5t24.5 -66.5q0 -20 -3.5 -34.5t-10 -27.5t-15 -25.5t-17.5 -28.5q5 -5 14 -12t12 -12q10 -15 14.5 -35.5t4.5 -38.5q0 -15 -3.5 -33t-11 -34.5t-19 -30t-26.5 -19.5q-14 -6 -30.5 -8t-31.5 -2q-29 0 -47 9t-31 36q-2 4 -2 11q0 9 6 16t16 7
q11 0 15.5 -5t7.5 -11t8.5 -11t19.5 -5zM356 180h-20.5h-28t-27 0.5t-17.5 2.5q-6 2 -10.5 6.5t-4.5 11.5q0 6 3 12q4 8 13 28t20.5 44.5t24.5 51.5t24.5 50t20 39.5t12.5 20.5q9 11 22 11q10 0 22 -7.5t15 -17.5q2 -7 2 -14v-14q0 -45 -1 -89t-1 -89v-13q16 -1 16 -16
q0 -10 -3.5 -15t-14.5 -5q-2 -35 -1.5 -71t-1.5 -71q-2 -19 -9 -27.5t-27 -8.5t-26 5t-6 26q0 11 0.5 23t1.5 23q1 25 1.5 49t0.5 49v5zM358 215q2 20 3 40t1 40v22v13.5t-1 13.5q-16 -32 -31 -63.5t-29 -63.5q11 -1 21.5 -1.5t21.5 -0.5h14z" />
    <glyph glyph-name="questiondown" unicode="&#xbf;" horiz-adv-x="314" 
d="M168 474q-17 0 -28.5 12t-11.5 29q0 16 11 33.5t29 17.5q16 0 28 -13.5t12 -29.5q0 -17 -11 -33t-29 -16zM262 -33q0 -23 -4.5 -49t-16 -49t-29.5 -40t-45 -21q-9 -2 -17.5 -2h-17.5q-67 0 -97.5 36.5t-30.5 100.5q0 21 5 46t15 49t24.5 44.5t33.5 31.5q12 7 24.5 11.5
t25.5 8.5v2q0 60 -3 118t-3 118q0 9 5 15t12.5 9t16 4t15.5 1t13 -2t10 -8q3 -4 4 -8.5t1 -9.5q0 -20 0.5 -40t0.5 -40q0 -24 -0.5 -47.5t-0.5 -47.5q0 -18 2 -35.5t2 -35.5q0 -15 -3 -30q-2 -10 -9.5 -13.5t-18 -5.5t-23.5 -6t-25.5 -13t-24.5 -27t-21 -48q-6 -20 -6 -39
t3 -35t11 -28t22 -18.5t35 -6.5q23 0 37 8.5t21.5 23t11 32.5t5.5 37q1 5 2 11t3 10q2 3 5.5 4.5t6.5 1.5q11 0 17 -2.5t6 -15.5z" />
    <glyph glyph-name="Agrave" unicode="&#xc0;" horiz-adv-x="318" 
d="M79 924q6 0 11.5 -4t8.5 -9q4 -6 7.5 -12t7.5 -11q3 -5 11 -14.5t15.5 -20t13.5 -20t6 -14.5q0 -8 -5.5 -13.5t-13.5 -5.5q-9 0 -16 10q-4 5 -14.5 19.5t-21.5 30.5t-19.5 30t-8.5 17q0 7 5.5 12t12.5 5zM183 343q-8 69 -18 137t-19 137q-7 -69 -12.5 -136.5
t-13.5 -136.5q14 0 27.5 -0.5t27.5 -0.5h8zM3 21q0 12 1.5 24.5t3.5 24.5q5 38 9 75t8 75q11 100 21 197.5t21 197.5q4 30 7 60.5t7 60.5q3 21 14.5 23t28.5 2q13 0 28 -1t19 -17q5 -21 8 -43t6 -43q7 -45 12.5 -90.5t12.5 -90.5q5 -32 7.5 -63t6.5 -63q7 -51 13.5 -101.5
t13.5 -101.5q3 -20 6 -41t6 -41q2 -12 4.5 -24t2.5 -25q0 -8 -7 -11t-14 -3q-2 0 -6.5 0.5t-6.5 2.5q-5 4 -5.5 7.5t-2.5 8.5q-7 31 -11 61.5t-8 62.5q-5 40 -10.5 79.5t-10.5 79.5q-18 -1 -35.5 -1h-35.5q-5 -42 -8.5 -83.5t-7.5 -83.5q-3 -29 -5 -59t-2 -60
q0 -14 -13.5 -15t-23.5 -1h-15t-18 1.5t-15 5.5t-6 13z" />
    <glyph glyph-name="Aacute" unicode="&#xc1;" horiz-adv-x="318" 
d="M3 21q0 12 1.5 24.5t3.5 24.5q5 38 9 75t8 75q11 100 21 197.5t21 197.5q4 30 7 60.5t7 60.5q3 21 14.5 23t28.5 2q13 0 28 -1t19 -17q5 -21 8 -43t6 -43q7 -45 12.5 -90.5t12.5 -90.5q5 -32 7.5 -63t6.5 -63q7 -51 13.5 -101.5t13.5 -101.5q3 -20 6 -41t6 -41
q2 -12 4.5 -24t2.5 -25q0 -8 -7 -11t-14 -3q-2 0 -6.5 0.5t-6.5 2.5q-5 4 -5.5 7.5t-2.5 8.5q-7 31 -11 61.5t-8 62.5q-5 40 -10.5 79.5t-10.5 79.5q-18 -1 -35.5 -1h-35.5q-5 -42 -8.5 -83.5t-7.5 -83.5q-2 -14 -2.5 -26.5t-1.5 -26.5t-2.5 -26.5t-1.5 -26.5q0 -3 0.5 -6
t0.5 -7q0 -14 -13.5 -15t-23.5 -1h-15t-18 1.5t-15 5.5t-6 13zM183 343q-8 69 -18 137t-19 137q-7 -69 -12.5 -136.5t-13.5 -136.5q14 0 27.5 -0.5t27.5 -0.5h8zM178 928q7 0 13 -5.5t6 -12.5q0 -4 -9 -17.5t-20 -29.5t-21.5 -30.5t-14.5 -19.5q-3 -4 -7 -7t-9 -3
q-8 0 -13.5 5.5t-5.5 13.5q0 5 6 14.5t13.5 20t15.5 20t11 14.5q4 5 7 11.5t8 11.5q4 5 9 9.5t11 4.5z" />
    <glyph glyph-name="Acircumflex" unicode="&#xc2;" horiz-adv-x="318" 
d="M3 21q0 12 1.5 24.5t3.5 24.5q5 38 9 75t8 75q11 100 21 197.5t21 197.5q4 30 7 60.5t7 60.5q3 21 14.5 23t28.5 2q13 0 28 -1t19 -17q5 -21 8 -43t6 -43q7 -45 12.5 -90.5t12.5 -90.5q5 -32 7.5 -63t6.5 -63q7 -51 13.5 -101.5t13.5 -101.5q3 -20 6 -41t6 -41
q2 -12 4.5 -24t2.5 -25q0 -8 -7 -11t-14 -3q-2 0 -6.5 0.5t-6.5 2.5q-5 4 -5.5 7.5t-2.5 8.5q-7 31 -11 61.5t-8 62.5q-5 40 -10.5 79.5t-10.5 79.5q-18 -1 -35.5 -1h-35.5q-5 -42 -8.5 -83.5t-7.5 -83.5q-2 -14 -2.5 -26.5t-1.5 -26.5t-2.5 -26.5t-1.5 -26.5q0 -3 0.5 -6
t0.5 -7q0 -14 -13.5 -15t-23.5 -1h-15t-18 1.5t-15 5.5t-6 13zM183 343q-8 69 -18 137t-19 137q-7 -69 -12.5 -136.5t-13.5 -136.5q14 0 27.5 -0.5t27.5 -0.5h8zM182 800q-6 0 -11 7q-3 4 -8 16t-10.5 26t-11 27.5t-8.5 20.5q-11 -23 -22 -45l-22 -44q-2 -3 -3.5 -5.5
t-6.5 -2.5t-14 3.5t-9 10.5q0 4 8.5 22.5t19 39.5t20.5 40t14 24q3 4 6 6.5t8 2.5t9 -3.5t6 -8.5l12 -24t18 -38.5t16 -38t7 -21.5q0 -6 -6 -10.5t-12 -4.5z" />
    <glyph glyph-name="Atilde" unicode="&#xc3;" horiz-adv-x="318" 
d="M3 21q0 12 1.5 24.5t3.5 24.5q5 38 9 75t8 75q11 100 21 197.5t21 197.5q4 30 7 60.5t7 60.5q3 21 14.5 23t28.5 2q13 0 28 -1t19 -17q5 -21 8 -43t6 -43q7 -45 12.5 -90.5t12.5 -90.5q5 -32 7.5 -63t6.5 -63q7 -51 13.5 -101.5t13.5 -101.5q3 -20 6 -41t6 -41
q2 -12 4.5 -24t2.5 -25q0 -8 -7 -11t-14 -3q-2 0 -6.5 0.5t-6.5 2.5q-5 4 -5.5 7.5t-2.5 8.5q-7 31 -11 61.5t-8 62.5q-5 40 -10.5 79.5t-10.5 79.5q-18 -1 -35.5 -1h-35.5q-5 -42 -8.5 -83.5t-7.5 -83.5q-2 -14 -2.5 -26.5t-1.5 -26.5t-2.5 -26.5t-1.5 -26.5q0 -3 0.5 -6
t0.5 -7q0 -14 -13.5 -15t-23.5 -1h-15t-18 1.5t-15 5.5t-6 13zM183 343q-8 69 -18 137t-19 137q-7 -69 -12.5 -136.5t-13.5 -136.5q14 0 27.5 -0.5t27.5 -0.5h8zM57 810q-8 0 -11 6.5t-3 12.5q0 9 3.5 21.5t10 23.5t15.5 18.5t20 7.5q14 0 24 -12t18.5 -26.5t16 -26.5
t16.5 -12q7 0 12.5 9.5t9 22t5.5 25t2 17.5q0 7 3 14t11 7q17 0 17 -17q0 -12 -3 -30.5t-10 -36.5t-17.5 -30.5t-26.5 -12.5q-21 0 -33 11.5t-19.5 25t-13 25t-13.5 11.5q-5 0 -8 -8.5t-6.5 -18.5t-8 -18.5t-11.5 -8.5z" />
    <glyph glyph-name="Adieresis" unicode="&#xc4;" horiz-adv-x="318" 
d="M3 21q0 12 1.5 24.5t3.5 24.5q5 38 9 75t8 75q11 100 21 197.5t21 197.5q4 30 7 60.5t7 60.5q3 21 14.5 23t28.5 2q13 0 28 -1t19 -17q5 -21 8 -43t6 -43q7 -45 12.5 -90.5t12.5 -90.5q5 -32 7.5 -63t6.5 -63q7 -51 13.5 -101.5t13.5 -101.5q3 -20 6 -41t6 -41
q2 -12 4.5 -24t2.5 -25q0 -8 -7 -11t-14 -3q-2 0 -6.5 0.5t-6.5 2.5q-5 4 -5.5 7.5t-2.5 8.5q-7 31 -11 61.5t-8 62.5q-5 40 -10.5 79.5t-10.5 79.5q-18 -1 -35.5 -1h-35.5q-5 -42 -8.5 -83.5t-7.5 -83.5q-2 -14 -2.5 -26.5t-1.5 -26.5t-2.5 -26.5t-1.5 -26.5q0 -3 0.5 -6
t0.5 -7q0 -14 -13.5 -15t-23.5 -1h-15t-18 1.5t-15 5.5t-6 13zM183 343q-8 69 -18 137t-19 137q-7 -69 -12.5 -136.5t-13.5 -136.5q14 0 27.5 -0.5t27.5 -0.5h8zM204 844q0 -14 -9 -23.5t-23 -9.5q-12 0 -18.5 10t-6.5 21q0 14 7.5 22t21.5 8q11 0 19.5 -8.5t8.5 -19.5z
M106 844q0 -14 -9 -23.5t-23 -9.5q-12 0 -18.5 10t-6.5 21q0 14 7.5 22t21.5 8q11 0 19.5 -8.5t8.5 -19.5z" />
    <glyph glyph-name="Aring" unicode="&#xc5;" horiz-adv-x="318" 
d="M3 21q0 12 1.5 24.5t3.5 24.5q5 38 9 75t8 75q11 100 21 197.5t21 197.5q4 30 7 60.5t7 60.5q3 21 14.5 23t28.5 2q13 0 28 -1t19 -17q5 -21 8 -43t6 -43q7 -45 12.5 -90.5t12.5 -90.5q5 -32 7.5 -63t6.5 -63q7 -51 13.5 -101.5t13.5 -101.5q3 -20 6 -41t6 -41
q2 -12 4.5 -24t2.5 -25q0 -8 -7 -11t-14 -3q-2 0 -6.5 0.5t-6.5 2.5q-5 4 -5.5 7.5t-2.5 8.5q-7 31 -11 61.5t-8 62.5q-5 40 -10.5 79.5t-10.5 79.5q-18 -1 -35.5 -1h-35.5q-5 -42 -8.5 -83.5t-7.5 -83.5q-2 -14 -2.5 -26.5t-1.5 -26.5t-2.5 -26.5t-1.5 -26.5q0 -3 0.5 -6
t0.5 -7q0 -14 -13.5 -15t-23.5 -1h-15t-18 1.5t-15 5.5t-6 13zM183 343q-8 69 -18 137t-19 137q-7 -69 -12.5 -136.5t-13.5 -136.5q14 0 27.5 -0.5t27.5 -0.5h8zM125 937q24 0 36 -21t12 -42v-15q0 -19 -5 -33.5t-22 -25.5q-9 -6 -20 -6q-13 0 -23 6.5t-16.5 16.5t-10 22.5
t-3.5 23.5q0 12 2.5 25t8.5 24t16 18t25 7zM122 839q11 0 13 11t2 19q0 3 -2.5 13.5t-6.5 10.5q-9 0 -14 -11.5t-5 -19.5q0 -6 2.5 -14.5t10.5 -8.5z" />
    <glyph glyph-name="AE" unicode="&#xc6;" horiz-adv-x="490" 
d="M216 8q0 23 -1 46.5t-1 46.5q0 51 1 102t1 102h-84q-16 -51 -29.5 -103t-30.5 -103q-7 -20 -12.5 -40t-10.5 -40q-2 -6 -5 -13t-11 -7q-4 0 -5.5 1t-4.5 2q-6 2 -11 4t-5 11q0 2 2 9.5t4.5 16.5t5 17t3.5 11q18 54 31.5 109.5t29.5 110.5l22 70l22 70q3 10 10 35.5
t15.5 58.5t19 69t19 66.5t15.5 51.5t10 24q6 20 29 22q17 2 34 1.5t34 -0.5h48t48 -1q5 0 12.5 -0.5t7.5 -8.5q0 -4 0.5 -8t0.5 -8t-1 -8.5t-3 -7.5q-2 -2 -5.5 -3.5t-6.5 -1.5q-28 0 -55.5 -0.5t-55.5 -0.5q1 -33 1.5 -66.5t0.5 -66.5v-105v-34t-1 -34q9 -1 18 -1h18
q11 0 21.5 1t21.5 1t17.5 -5t6.5 -16q0 -9 -4.5 -13t-12.5 -6q-20 -5 -42.5 -5h-43.5v-183v-66t1 -66h89q8 0 19.5 0.5t18.5 -3.5q4 -4 4 -9v-10q0 -9 -3 -17t-14 -8h-187q-7 0 -13 3zM216 343q0 57 1 113.5t1 113.5v20t-1 20q-13 -42 -24.5 -84.5t-23.5 -84.5
q-7 -25 -12 -49.5t-13 -48.5h72z" />
    <glyph glyph-name="Ccedilla" unicode="&#xc7;" horiz-adv-x="300" 
d="M159 747q43 0 67 -25.5t24 -67.5q0 -4 -0.5 -11.5t-2 -15t-5 -13.5t-8.5 -6h-4q-7 2 -8 6.5t-1 10.5q0 9 0.5 24t-2 29.5t-9.5 24.5t-21 10q-16 0 -28 -10.5t-21 -25t-16 -30.5t-13 -28q-8 -18 -15.5 -45t-12.5 -57t-8 -59t-3 -49q0 -15 0.5 -30t1.5 -30q4 -66 9.5 -131
t29.5 -127q3 -8 8 -18.5t12 -20t15.5 -16t19.5 -6.5q15 0 24.5 11t15.5 24.5t10.5 25t10.5 11.5q8 0 11 -7t3 -12q0 -15 -6.5 -30t-17.5 -27t-25.5 -19.5t-30.5 -7.5q-4 0 -8.5 1t-8.5 1h-1v-1l-1 -2l-2 -4l-2 -4q-2 -7 -4 -14.5t-6 -14.5q10 2 16 2q26 0 39 -17.5t13 -41.5
q0 -23 -15 -41t-39 -18q-11 0 -26 7.5t-15 20.5q0 3 3 5.5t6 2.5q7 0 10.5 -6.5t20.5 -6.5q16 0 24.5 12t8.5 27q0 13 -8.5 23.5t-22.5 10.5q-11 0 -16.5 -5t-9.5 -5q-6 0 -9.5 4.5t-3.5 9.5q0 13 6 31t11 32q-35 11 -59 38t-34 62q-18 66 -23.5 132t-5.5 134q0 48 6.5 93.5
t13.5 92.5q4 26 14 58.5t27 61t41 48t56 19.5z" />
    <glyph glyph-name="Egrave" unicode="&#xc8;" 
d="M63 924q6 0 11.5 -4t8.5 -9q4 -6 7 -12t8 -11q3 -4 11 -14t15.5 -20.5t13.5 -20.5t6 -14q0 -8 -5.5 -14t-13.5 -6q-5 0 -9 3.5t-7 7.5q-4 5 -14.5 19.5t-21.5 30.5t-19.5 29.5t-8.5 17.5q0 7 5.5 12t12.5 5zM217 735q0 -5 -1 -9.5t-4 -7.5q-5 -5 -11 -5q-28 0 -56 -0.5
t-56 -0.5q4 -77 3 -153.5t-1 -152.5q9 -1 17.5 -1h17.5q11 0 22 1t22 1t17.5 -5.5t6.5 -16.5q0 -16 -17 -19q-20 -5 -42.5 -4.5t-43.5 0.5v-315h107q5 0 10.5 -0.5t10.5 -2.5l3 -6q0 -5 0.5 -9.5t0.5 -9.5q0 -19 -17 -19h-187q-6 0 -10 1.5t-6 7.5q-2 26 -2 50.5v50.5
q0 48 1 96t1 96q0 68 0.5 134.5t0.5 134.5q0 39 -1.5 78.5t-1.5 78.5q0 14 9 22.5t23 8.5q31 0 61 0.5t61 0.5q11 0 22 -0.5t22 -0.5q5 0 11 -1t6 -8q0 -4 0.5 -7.5t0.5 -7.5z" />
    <glyph glyph-name="Eacute" unicode="&#xc9;" 
d="M217 735q0 -5 -1 -9.5t-4 -7.5q-5 -5 -11 -5q-28 0 -56 -0.5t-56 -0.5q4 -77 3 -153.5t-1 -152.5q9 -1 17.5 -1h17.5q11 0 22 1t22 1t17.5 -5.5t6.5 -16.5q0 -16 -17 -19q-20 -5 -42.5 -4.5t-43.5 0.5v-315h90q8 0 19.5 0.5t18.5 -3.5l3 -6q0 -5 0.5 -9.5t0.5 -9.5
q0 -19 -17 -19h-187q-6 0 -10 1.5t-6 7.5q-2 26 -2 50.5v50.5q0 48 1 96t1 96q0 68 0.5 134.5t0.5 134.5q0 39 -1.5 78.5t-1.5 78.5q0 14 9 22.5t23 8.5q31 0 61 0.5t61 0.5q11 0 22 -0.5t22 -0.5q5 0 11 -1t6 -8q0 -4 0.5 -7.5t0.5 -7.5zM168 918q7 0 13 -5.5t6 -12.5
q0 -4 -9 -17.5t-20 -29.5t-21.5 -30.5t-14.5 -19.5q-3 -4 -7 -7t-9 -3q-8 0 -13.5 5.5t-5.5 13.5q0 5 6 14.5t13.5 20t15.5 20t11 14.5q4 5 7 11.5t8 11.5q4 5 9 9.5t11 4.5z" />
    <glyph glyph-name="Ecircumflex" unicode="&#xca;" 
d="M217 735q0 -5 -1 -9.5t-4 -7.5q-5 -5 -11 -5q-28 0 -56 -0.5t-56 -0.5q4 -77 3 -153.5t-1 -152.5q9 -1 17.5 -1h17.5q11 0 22 1t22 1t17.5 -5.5t6.5 -16.5q0 -16 -17 -19q-20 -5 -42.5 -4.5t-43.5 0.5v-315h90q8 0 19.5 0.5t18.5 -3.5l3 -6q0 -5 0.5 -9.5t0.5 -9.5
q0 -19 -17 -19h-187q-6 0 -10 1.5t-6 7.5q-2 26 -2 50.5v50.5q0 48 1 96t1 96q0 68 0.5 134.5t0.5 134.5q0 39 -1.5 78.5t-1.5 78.5q0 14 9 22.5t23 8.5q31 0 61 0.5t61 0.5q11 0 22 -0.5t22 -0.5q5 0 11 -1t6 -8q0 -4 0.5 -7.5t0.5 -7.5zM162 800q-6 0 -11 7q-3 4 -8 16
t-10.5 26t-11 27.5t-8.5 20.5q-11 -23 -22 -45l-22 -44q-2 -3 -3.5 -5.5t-6.5 -2.5t-14 3.5t-9 10.5q0 4 8.5 22.5t19 39.5t20.5 40t14 24q3 4 6 6.5t8 2.5t9 -3.5t6 -8.5l12 -24t18 -38.5t16 -38t7 -21.5q0 -6 -6 -10.5t-12 -4.5z" />
    <glyph glyph-name="Edieresis" unicode="&#xcb;" 
d="M217 735q0 -5 -1 -9.5t-4 -7.5q-5 -5 -11 -5q-28 0 -56 -0.5t-56 -0.5q4 -77 3 -153.5t-1 -152.5q9 -1 17.5 -1h17.5q11 0 22 1t22 1t17.5 -5.5t6.5 -16.5q0 -16 -17 -19q-20 -5 -42.5 -4.5t-43.5 0.5v-315h90q8 0 19.5 0.5t18.5 -3.5l3 -6q0 -5 0.5 -9.5t0.5 -9.5
q0 -19 -17 -19h-187q-6 0 -10 1.5t-6 7.5q-2 26 -2 50.5v50.5q0 48 1 96t1 96q0 68 0.5 134.5t0.5 134.5q0 39 -1.5 78.5t-1.5 78.5q0 14 9 22.5t23 8.5q31 0 61 0.5t61 0.5q11 0 22 -0.5t22 -0.5q5 0 11 -1t6 -8q0 -4 0.5 -7.5t0.5 -7.5zM184 844q0 -14 -9 -23.5t-23 -9.5
q-12 0 -18.5 10t-6.5 21q0 14 7.5 22t21.5 8q11 0 19.5 -8.5t8.5 -19.5zM86 844q0 -14 -9 -23.5t-23 -9.5q-12 0 -18.5 10t-6.5 21q0 14 7.5 22t21.5 8q11 0 19.5 -8.5t8.5 -19.5z" />
    <glyph glyph-name="Igrave" unicode="&#xcc;" horiz-adv-x="358" 
d="M73 924q6 0 11.5 -4t8.5 -9q4 -6 7 -12t8 -11q3 -4 11 -14t15.5 -20.5t13.5 -20.5t6 -14q0 -8 -5.5 -14t-13.5 -6q-5 0 -9 3.5t-7 7.5q-4 5 -14.5 19.5t-21.5 30.5t-19.5 29.5t-8.5 17.5q0 7 5.5 12t12.5 5zM181 714v-44q0 -45 3 -88t3 -88q1 -115 1.5 -229.5t0.5 -229.5
h26h27.5t27.5 -3q9 -2 13 -6t4 -14q0 -7 -5 -12q-6 -5 -15 -5q-26 0 -52 -0.5t-52 -0.5q-29 0 -57.5 2.5t-57.5 2.5q-7 0 -13 -0.5t-13 -0.5t-18.5 1.5t-11.5 12.5q0 17 11 20.5t25 3.5q18 0 35.5 -0.5t35.5 -0.5v24q0 122 -1 242.5t-6 242.5q-2 43 -3 85t-2 85h-19.5h-23.5
t-22.5 0.5t-17.5 2.5q-17 4 -17 21q0 8 5.5 12t13.5 4h111q9 0 17.5 -1t17.5 -1q19 0 37.5 -1t37.5 -1q8 0 15 0.5t15 0.5q7 0 16 -2.5t9 -11.5q0 -17 -9 -20.5t-23 -3.5q-17 0 -34.5 0.5t-34.5 0.5z" />
    <glyph glyph-name="Iacute" unicode="&#xcd;" horiz-adv-x="358" 
d="M250 713q-17 0 -34.5 0.5t-34.5 0.5v-44q0 -45 3 -88t3 -88q1 -115 1.5 -229.5t0.5 -229.5q19 0 40.5 1t40.5 -4q9 -2 13 -6t4 -14q0 -7 -5 -12q-6 -5 -15 -5q-26 0 -52 -0.5t-52 -0.5q-29 0 -57.5 2.5t-57.5 2.5q-7 0 -13 -0.5t-13 -0.5t-18.5 1.5t-11.5 12.5
q0 17 11 20.5t25 3.5q18 0 35.5 -0.5t35.5 -0.5v24q0 122 -1 242.5t-6 242.5q-2 43 -3 85t-2 85h-19.5h-23.5t-22.5 0.5t-17.5 2.5q-17 4 -17 21q0 8 5.5 12t13.5 4h111q9 0 17.5 -1t17.5 -1q19 0 37.5 -1t37.5 -1q4 0 13.5 1t18.5 0t16 -4t7 -10q0 -17 -9 -20.5t-23 -3.5z
M188 918q7 0 13 -5.5t6 -12.5q0 -4 -9 -17.5t-20 -29.5t-21.5 -30.5t-14.5 -19.5q-3 -4 -7 -7t-9 -3q-8 0 -13.5 5.5t-5.5 13.5q0 5 6 14.5t13.5 20t15.5 20t11 14.5q4 5 7 11.5t8 11.5q4 5 9 9.5t11 4.5z" />
    <glyph glyph-name="Icircumflex" unicode="&#xce;" horiz-adv-x="358" 
d="M250 713q-17 0 -34.5 0.5t-34.5 0.5v-44q0 -45 3 -88t3 -88q1 -115 1.5 -229.5t0.5 -229.5q19 0 40.5 1t40.5 -4q9 -2 13 -6t4 -14q0 -7 -5 -12q-6 -5 -15 -5q-26 0 -52 -0.5t-52 -0.5q-29 0 -57.5 2.5t-57.5 2.5q-7 0 -13 -0.5t-13 -0.5t-18.5 1.5t-11.5 12.5
q0 17 11 20.5t25 3.5q18 0 35.5 -0.5t35.5 -0.5v24q0 122 -1 242.5t-6 242.5q-2 43 -3 85t-2 85h-19.5h-23.5t-22.5 0.5t-17.5 2.5q-17 4 -17 21q0 8 5.5 12t13.5 4h111q9 0 17.5 -1t17.5 -1q19 0 37.5 -1t37.5 -1q4 0 13.5 1t18.5 0t16 -4t7 -10q0 -17 -9 -20.5t-23 -3.5z
M192 800q-6 0 -11 7q-3 4 -8 16t-10.5 26t-11 27.5t-8.5 20.5q-11 -23 -22 -45l-22 -44q-2 -3 -3.5 -5.5t-6.5 -2.5t-14 3.5t-9 10.5q0 4 8.5 22.5t19 39.5t20.5 40t14 24q3 4 6 6.5t8 2.5t9 -3.5t6 -8.5l12 -24t18 -38.5t16 -38t7 -21.5q0 -6 -6 -10.5t-12 -4.5z" />
    <glyph glyph-name="Idieresis" unicode="&#xcf;" horiz-adv-x="358" 
d="M250 713q-17 0 -34.5 0.5t-34.5 0.5v-44q0 -45 3 -88t3 -88q1 -115 1.5 -229.5t0.5 -229.5q19 0 40.5 1t40.5 -4q9 -2 13 -6t4 -14q0 -7 -5 -12q-6 -5 -15 -5q-26 0 -52 -0.5t-52 -0.5q-29 0 -57.5 2.5t-57.5 2.5q-7 0 -13 -0.5t-13 -0.5t-18.5 1.5t-11.5 12.5
q0 17 11 20.5t25 3.5q18 0 35.5 -0.5t35.5 -0.5v24q0 122 -1 242.5t-6 242.5q-2 43 -3 85t-2 85h-19.5h-23.5t-22.5 0.5t-17.5 2.5q-17 4 -17 21q0 8 5.5 12t13.5 4h111q9 0 17.5 -1t17.5 -1q19 0 37.5 -1t37.5 -1q4 0 13.5 1t18.5 0t16 -4t7 -10q0 -17 -9 -20.5t-23 -3.5z
M214 834q0 -14 -9 -23.5t-23 -9.5q-12 0 -18.5 10t-6.5 21q0 14 7.5 22t21.5 8q11 0 19.5 -8.5t8.5 -19.5zM116 834q0 -14 -9 -23.5t-23 -9.5q-12 0 -18.5 10t-6.5 21q0 14 7.5 22t21.5 8q11 0 19.5 -8.5t8.5 -19.5z" />
    <glyph glyph-name="Eth" unicode="&#xd0;" horiz-adv-x="376" 
d="M87 760q17 0 32.5 -11.5t28.5 -21.5q42 -30 72 -71t49.5 -88t29 -97.5t9.5 -100.5q0 -14 -0.5 -28.5t-1.5 -28.5q-6 -75 -32 -145q-10 -27 -19.5 -50t-22 -42.5t-30.5 -35.5t-45 -29q-23 -11 -52 -11q-11 0 -26 4t-20 16q-1 3 -2.5 22t-3 45.5t-3 58t-2.5 59.5t-1.5 49.5
t-0.5 29.5v50.5t-1 50.5q-5 -1 -11.5 -1.5t-11.5 -0.5q-17 0 -17 17q0 6 4.5 9t11 3.5t13 0.5h11.5q-1 23 -1 47v47q0 46 2.5 91.5t2.5 91.5q0 12 0.5 25t3.5 25q2 10 7.5 12t13.5 4q2 0 7 2t6 2zM124 45q26 0 44.5 17.5t33.5 36.5q19 23 28 51t19 55q11 29 16 58.5t7 60.5
q1 12 1.5 24t0.5 23q0 71 -16.5 129.5t-54.5 119.5q-8 14 -18 25t-21 23q-12 14 -27 22.5t-29 19.5q0 -6 -0.5 -12t-0.5 -11q0 -21 1.5 -41.5t1.5 -40.5q0 -48 2.5 -96t4.5 -96l32 2t32 1t16 -17q0 -10 -9 -11q-17 -2 -35.5 -2t-35.5 -1q0 -2 0.5 -4.5t0.5 -4.5
q1 -9 0.5 -18.5t-0.5 -18.5q0 -23 0.5 -45.5t0.5 -45.5q0 -27 1 -54.5t1 -54.5q0 -9 -1 -17.5t-1 -17.5q0 -14 1.5 -29t1.5 -29q1 0 1 -0.5t1 -0.5z" />
    <glyph glyph-name="Ntilde" unicode="&#xd1;" horiz-adv-x="376" 
d="M2 26q0 51 1.5 101.5t1.5 101.5q0 139 3 279q2 57 4.5 112.5t2.5 112.5q0 12 4 19t18 7h9.5h14t14 -0.5t8.5 -1.5q9 -3 12.5 -10.5t5.5 -16.5q6 -28 13.5 -55t13.5 -55q24 -106 49.5 -210.5t53.5 -209.5q2 -9 5 -18.5t6 -18.5q0 2 0.5 5t0.5 5v150q0 63 0.5 126.5
t0.5 126.5q0 38 -2 75.5t-2 75.5q0 13 6 22t20 9q15 0 18.5 -14t3.5 -25q0 -32 -1 -64.5t-1 -64.5q0 -20 1 -39.5t1 -39.5q0 -108 -1.5 -215t-1.5 -215v-25q0 -7 0.5 -16.5t-1 -18.5t-6.5 -15.5t-15 -6.5q-9 0 -14.5 5t-9 12.5t-5.5 16t-4 14.5q-17 60 -34 119.5t-33 119.5
q-20 74 -36.5 147.5t-34.5 148.5q-3 -135 -3 -271v-95q0 -48 0.5 -94.5t0.5 -94.5q0 -3 1 -5.5t1 -5.5q0 -8 -5 -11.5t-12 -5t-14.5 -1t-12.5 0.5h-17t-14.5 2t-10.5 7.5t-4 17.5zM87 810q-8 0 -11 6.5t-3 12.5q0 9 3.5 21.5t10 23.5t15.5 18.5t20 7.5q14 0 24 -12
t18.5 -26.5t16 -26.5t16.5 -12q7 0 12.5 9.5t9 22t5.5 25t2 17.5q0 7 3 14t11 7q17 0 17 -17q0 -12 -3 -30.5t-10 -36.5t-17.5 -30.5t-26.5 -12.5q-21 0 -33 11.5t-19.5 25t-13 25t-13.5 11.5q-5 0 -8 -8.5t-6.5 -18.5t-8 -18.5t-11.5 -8.5z" />
    <glyph glyph-name="Ograve" unicode="&#xd2;" horiz-adv-x="353" 
d="M103 924q6 0 11.5 -4t8.5 -9q4 -6 7 -12t8 -11q3 -4 11 -14t15.5 -20.5t13.5 -20.5t6 -14q0 -8 -5.5 -14t-13.5 -6q-5 0 -9 3.5t-7 7.5q-4 5 -14.5 19t-21.5 30t-19.5 30t-8.5 18q0 7 5.5 12t12.5 5zM166 51q7 0 14 9t13 21.5t10.5 24.5t6.5 18q6 18 12 35.5t10 36.5
q15 69 18.5 137.5t3.5 138.5q0 39 -3 80.5t-18 79.5q-5 14 -11.5 27.5t-15.5 24.5q-5 6 -12.5 13t-15.5 7q-2 0 -2.5 -0.5t-2.5 -0.5q-16 -7 -29 -28t-22.5 -50.5t-16 -63.5t-10.5 -66.5t-6 -60t-2 -43.5q0 -35 3 -76t10 -82.5t18 -80.5t26 -71q1 -3 3.5 -8t5.5 -10
t6.5 -8.5t6.5 -3.5zM161 760q16 0 26.5 -5.5t22.5 -15.5q14 -11 23 -23t18 -27l8 -13q12 -20 19 -46.5t10 -55.5t3.5 -57.5t0.5 -51.5q0 -33 0.5 -66.5t-1.5 -67.5q-1 -28 -7 -69.5t-16.5 -85t-24.5 -82t-31 -59.5q-13 -16 -33.5 -25.5t-40.5 -9.5q-24 0 -41 16.5t-30 34.5
q-20 29 -32.5 66.5t-20 77t-10 79.5t-2.5 75q0 38 3.5 86t11.5 96.5t22.5 93t36.5 76.5q14 21 35.5 40t49.5 19z" />
    <glyph glyph-name="Oacute" unicode="&#xd3;" horiz-adv-x="353" 
d="M161 760q16 0 26.5 -5.5t22.5 -15.5q14 -11 23 -23t18 -27l8 -13q12 -20 19 -46.5t10 -55.5t3.5 -57.5t0.5 -51.5q0 -33 0.5 -66.5t-1.5 -67.5q-1 -28 -7 -69.5t-16.5 -85t-24.5 -82t-31 -59.5q-13 -16 -33.5 -25.5t-40.5 -9.5q-24 0 -41 16.5t-30 34.5
q-20 29 -32.5 66.5t-20 77t-10 79.5t-2.5 75q0 38 3.5 86t11.5 96.5t22.5 93t36.5 76.5q14 21 35.5 40t49.5 19zM166 51q7 0 14 9t13 21.5t10.5 24.5t6.5 18q6 18 12 35.5t10 36.5q15 69 18.5 137.5t3.5 138.5q0 39 -3 80.5t-18 79.5q-5 14 -11.5 27.5t-15.5 24.5
q-5 6 -12.5 13t-15.5 7q-2 0 -2.5 -0.5t-2.5 -0.5q-16 -6 -29 -27.5t-22.5 -51t-16 -63.5t-10.5 -66.5t-6 -60t-2 -43.5q0 -35 3 -76t10 -82.5t18 -80.5t26 -71q1 -3 3.5 -8t5.5 -10t6.5 -8.5t6.5 -3.5zM208 928q7 0 13 -5.5t6 -12.5q0 -4 -9 -17.5t-20 -29.5t-21.5 -30.5
t-14.5 -19.5q-3 -4 -7 -7t-9 -3q-8 0 -13.5 5.5t-5.5 13.5q0 5 6 14.5t13.5 20t15.5 20t11 14.5q4 5 7 11.5t8 11.5q4 5 9 9.5t11 4.5z" />
    <glyph glyph-name="Ocircumflex" unicode="&#xd4;" horiz-adv-x="353" 
d="M161 760q16 0 26.5 -5.5t22.5 -15.5q14 -11 23 -23t18 -27l8 -13q12 -20 19 -46.5t10 -55.5t3.5 -57.5t0.5 -51.5q0 -33 0.5 -66.5t-1.5 -67.5q-1 -28 -7 -69.5t-16.5 -85t-24.5 -82t-31 -59.5q-13 -16 -33.5 -25.5t-40.5 -9.5q-24 0 -41 16.5t-30 34.5
q-20 29 -32.5 66.5t-20 77t-10 79.5t-2.5 75q0 38 3.5 86t11.5 96.5t22.5 93t36.5 76.5q14 21 35.5 40t49.5 19zM166 51q7 0 14 9t13 21.5t10.5 24.5t6.5 18q6 18 12 35.5t10 36.5q15 69 18.5 137.5t3.5 138.5q0 39 -3 80.5t-18 79.5q-5 14 -11.5 27.5t-15.5 24.5
q-5 6 -12.5 13t-15.5 7q-2 0 -2.5 -0.5t-2.5 -0.5q-16 -6 -29 -27.5t-22.5 -51t-16 -63.5t-10.5 -66.5t-6 -60t-2 -43.5q0 -35 3 -76t10 -82.5t18 -80.5t26 -71q1 -3 3.5 -8t5.5 -10t6.5 -8.5t6.5 -3.5zM222 800q-6 0 -11 7q-3 4 -8 16t-10.5 26t-11 27.5t-8.5 20.5
q-11 -23 -22 -45l-22 -44q-2 -3 -3.5 -5.5t-6.5 -2.5t-14 3.5t-9 10.5q0 4 8.5 22.5t19 39.5t20.5 40t14 24q3 4 6 6.5t8 2.5t9 -3.5t6 -8.5l12 -24t18 -38.5t16 -38t7 -21.5q0 -6 -6 -10.5t-12 -4.5z" />
    <glyph glyph-name="Otilde" unicode="&#xd5;" horiz-adv-x="353" 
d="M161 760q16 0 26.5 -5.5t22.5 -15.5q14 -11 23 -23t18 -27l8 -13q12 -20 19 -46.5t10 -55.5t3.5 -57.5t0.5 -51.5q0 -33 0.5 -66.5t-1.5 -67.5q-1 -28 -7 -69.5t-16.5 -85t-24.5 -82t-31 -59.5q-13 -16 -33.5 -25.5t-40.5 -9.5q-24 0 -41 16.5t-30 34.5
q-20 29 -32.5 66.5t-20 77t-10 79.5t-2.5 75q0 38 3.5 86t11.5 96.5t22.5 93t36.5 76.5q14 21 35.5 40t49.5 19zM166 51q7 0 14 9t13 21.5t10.5 24.5t6.5 18q6 18 12 35.5t10 36.5q15 69 18.5 137.5t3.5 138.5q0 39 -3 80.5t-18 79.5q-5 14 -11.5 27.5t-15.5 24.5
q-5 6 -12.5 13t-15.5 7q-2 0 -2.5 -0.5t-2.5 -0.5q-16 -6 -29 -27.5t-22.5 -51t-16 -63.5t-10.5 -66.5t-6 -60t-2 -43.5q0 -35 3 -76t10 -82.5t18 -80.5t26 -71q1 -3 3.5 -8t5.5 -10t6.5 -8.5t6.5 -3.5zM97 810q-8 0 -11 6.5t-3 12.5q0 9 3.5 21.5t10 23.5t15.5 18.5t20 7.5
q14 0 24 -12t18.5 -26.5t16 -26.5t16.5 -12q7 0 12.5 9.5t9 22t5.5 25t2 17.5q0 7 3 14t11 7q17 0 17 -17q0 -12 -3 -30.5t-10 -36.5t-17.5 -30.5t-26.5 -12.5q-21 0 -33 11.5t-19.5 25t-13 25t-13.5 11.5q-5 0 -8 -8.5t-6.5 -18.5t-8 -18.5t-11.5 -8.5z" />
    <glyph glyph-name="Odieresis" unicode="&#xd6;" horiz-adv-x="353" 
d="M161 760q16 0 26.5 -5.5t22.5 -15.5q14 -11 23 -23t18 -27l8 -13q12 -20 19 -46.5t10 -55.5t3.5 -57.5t0.5 -51.5q0 -33 0.5 -66.5t-1.5 -67.5q-1 -28 -7 -69.5t-16.5 -85t-24.5 -82t-31 -59.5q-13 -16 -33.5 -25.5t-40.5 -9.5q-24 0 -41 16.5t-30 34.5
q-20 29 -32.5 66.5t-20 77t-10 79.5t-2.5 75q0 38 3.5 86t11.5 96.5t22.5 93t36.5 76.5q14 21 35.5 40t49.5 19zM166 51q7 0 14 9t13 21.5t10.5 24.5t6.5 18q6 18 12 35.5t10 36.5q15 69 18.5 137.5t3.5 138.5q0 39 -3 80.5t-18 79.5q-5 14 -11.5 27.5t-15.5 24.5
q-5 6 -12.5 13t-15.5 7q-2 0 -2.5 -0.5t-2.5 -0.5q-16 -6 -29 -27.5t-22.5 -51t-16 -63.5t-10.5 -66.5t-6 -60t-2 -43.5q0 -35 3 -76t10 -82.5t18 -80.5t26 -71q1 -3 3.5 -8t5.5 -10t6.5 -8.5t6.5 -3.5zM234 844q0 -14 -9 -23.5t-23 -9.5q-12 0 -18.5 10t-6.5 21
q0 14 7.5 22t21.5 8q11 0 19.5 -8.5t8.5 -19.5zM136 844q0 -14 -9 -23.5t-23 -9.5q-12 0 -18.5 10t-6.5 21q0 14 7.5 22t21.5 8q11 0 19.5 -8.5t8.5 -19.5z" />
    <glyph glyph-name="multiply" unicode="&#xd7;" horiz-adv-x="334" 
d="M138 196q-20 -20 -36 -40t-32 -43q-5 -7 -14.5 -18.5t-18.5 -11.5q-11 0 -23 12t-12 23q0 5 7 16t18 24.5t23.5 28t23.5 27t18 21.5t8 11q-17 17 -31.5 36t-30.5 37q-7 8 -16.5 20t-9.5 23q0 8 6.5 11.5t13.5 3.5q10 0 19 -11q14 -18 28.5 -35t28.5 -34q4 -5 7.5 -10.5
t8.5 -10.5q7 11 16.5 20.5t17.5 19.5q14 15 26.5 31.5t26.5 30.5q7 7 14 7q12 0 22.5 -7t10.5 -20q0 -8 -2 -13t-7 -11q-20 -27 -40.5 -53.5t-42.5 -52.5q20 -21 39.5 -42.5t37.5 -44.5q4 -5 8 -9.5t8 -9.5q6 -8 6 -16t-7 -13.5t-15 -5.5q-3 0 -7 1t-6 3l-92 105v0z" />
    <glyph glyph-name="Oslash" unicode="&#xd8;" horiz-adv-x="405" 
d="M178 -2q-26 0 -46 7.5t-40 24.5q0 -3 -2 -11t-4 -16.5t-4.5 -15.5t-3.5 -9q-5 -6 -12 -6q-5 0 -17 4t-12 12q0 2 3 13.5t7 25t7.5 26t5.5 17.5q-12 23 -21 46.5t-13 48.5q-9 59 -14 117.5t-5 118.5q0 36 3 81.5t11 91t23.5 86.5t41.5 68q11 11 31 17t36 6q27 0 50 -13
t40 -34q5 18 9.5 37t12.5 36l4 4q2 1 7 1q6 0 18 -5t12 -13q0 -3 -4.5 -18t-10 -32.5t-11 -33.5t-7.5 -21q33 -57 44.5 -123.5t11.5 -131.5q0 -13 1 -26t1 -26q0 -35 -4 -71.5t-12 -73.5t-19 -72t-26 -66q-14 -29 -35.5 -50t-56.5 -21zM284 351q0 28 -0.5 59.5t-3.5 63
t-9 62t-17 56.5q-10 -34 -19.5 -67.5t-18.5 -68.5q-8 -28 -14.5 -56t-15.5 -56q-15 -46 -28 -92.5t-26 -93.5q3 -10 7.5 -24.5t11.5 -28.5t15.5 -25t19.5 -15q2 -1 3.5 -1t3.5 -1q11 1 21 14.5t19 34t16.5 45.5t13 48.5t9.5 43t6 29.5q6 36 6 73zM115 266q13 45 27 89.5
t28 89.5q15 50 28 99t28 99l-10 12.5t-13.5 14t-15 11.5t-13.5 5q-16 0 -27 -22t-18 -56t-11.5 -75.5t-6.5 -79.5t-2.5 -68.5t-0.5 -42.5q0 -19 2.5 -38t4.5 -38z" />
    <glyph glyph-name="Ugrave" unicode="&#xd9;" horiz-adv-x="324" 
d="M93 924q6 0 11.5 -4t8.5 -9q4 -6 7 -12t8 -11q3 -4 11 -14t15.5 -20.5t13.5 -20.5t6 -14q0 -8 -5.5 -14t-13.5 -6q-5 0 -9 3.5t-7 7.5q-4 5 -14.5 19t-21.5 30t-19.5 30t-8.5 18q0 7 5.5 12t12.5 5zM26 758h42q13 0 16.5 -6t3.5 -17q0 -54 -0.5 -106.5t-0.5 -106.5
q0 -86 4 -170.5t9 -170.5q1 -11 4.5 -31t10.5 -40.5t17 -35.5t24 -15q13 0 22.5 13t15.5 33.5t9.5 45t5 48t2 43t0.5 29.5v468q0 14 5.5 16t16.5 2q8 0 15.5 -2t7.5 -12v-442v-51.5t-2.5 -64.5t-9 -67t-19.5 -60t-33.5 -43.5t-51.5 -16.5q-20 0 -40.5 7.5t-34.5 23.5
q-23 26 -32 59t-14 66q-8 55 -9 110t-3 110q-1 24 -1 47.5v47.5q0 39 -1 77.5t-1 77.5q0 29 1 57t1 57q0 20 20 20z" />
    <glyph glyph-name="Uacute" unicode="&#xda;" horiz-adv-x="324" 
d="M68 758q13 0 16.5 -6t3.5 -17q0 -54 -0.5 -106.5t-0.5 -106.5q0 -86 4 -170.5t9 -170.5q1 -11 4.5 -31t10.5 -40.5t17 -35.5t24 -15q13 0 22.5 13t15.5 33.5t9.5 45t5 48t2 43t0.5 29.5v468q0 8 2.5 13t11.5 5h8q8 0 15.5 -2t7.5 -12v-442v-51.5t-2.5 -64.5t-9 -67
t-19.5 -60t-33.5 -43.5t-51.5 -16.5q-20 0 -40.5 7.5t-34.5 23.5q-23 26 -32 59t-14 66q-8 55 -9 110t-3 110q-1 24 -1 47.5v47.5q0 39 -1 77.5t-1 77.5q0 29 1 57t1 57q0 20 20 20h42zM188 918q7 0 13 -5.5t6 -12.5q0 -4 -9 -17.5t-20 -29.5t-21.5 -30.5t-14.5 -19.5
q-3 -4 -7 -7t-9 -3q-8 0 -13.5 5.5t-5.5 13.5q0 5 6 14.5t13.5 20t15.5 20t11 14.5q4 5 7 11.5t8 11.5q4 5 9 9.5t11 4.5z" />
    <glyph glyph-name="Ucircumflex" unicode="&#xdb;" horiz-adv-x="324" 
d="M68 758q13 0 16.5 -6t3.5 -17q0 -54 -0.5 -106.5t-0.5 -106.5q0 -86 4 -170.5t9 -170.5q1 -11 4.5 -31t10.5 -40.5t17 -35.5t24 -15q13 0 22.5 13t15.5 33.5t9.5 45t5 48t2 43t0.5 29.5v468q0 8 2.5 13t11.5 5h8q8 0 15.5 -2t7.5 -12v-442v-51.5t-2.5 -64.5t-9 -67
t-19.5 -60t-33.5 -43.5t-51.5 -16.5q-20 0 -40.5 7.5t-34.5 23.5q-23 26 -32 59t-14 66q-8 55 -9 110t-3 110q-1 24 -1 47.5v47.5q0 39 -1 77.5t-1 77.5q0 29 1 57t1 57q0 20 20 20h42zM202 800q-6 0 -11 7q-3 4 -8 16t-10.5 26t-11 27.5t-8.5 20.5q-11 -23 -22 -45l-22 -44
q-2 -3 -3.5 -5.5t-6.5 -2.5t-14 3.5t-9 10.5q0 4 8.5 22.5t19 39.5t20.5 40t14 24q3 4 6 6.5t8 2.5t9 -3.5t6 -8.5l12 -24t18 -38.5t16 -38t7 -21.5q0 -6 -6 -10.5t-12 -4.5z" />
    <glyph glyph-name="Udieresis" unicode="&#xdc;" horiz-adv-x="324" 
d="M68 758q13 0 16.5 -6t3.5 -17q0 -54 -0.5 -106.5t-0.5 -106.5q0 -86 4 -170.5t9 -170.5q1 -11 4.5 -31t10.5 -40.5t17 -35.5t24 -15q13 0 22.5 13t15.5 33.5t9.5 45t5 48t2 43t0.5 29.5v468q0 8 2.5 13t11.5 5h8q8 0 15.5 -2t7.5 -12v-442v-51.5t-2.5 -64.5t-9 -67
t-19.5 -60t-33.5 -43.5t-51.5 -16.5q-20 0 -40.5 7.5t-34.5 23.5q-23 26 -32 59t-14 66q-8 55 -9 110t-3 110q-1 24 -1 47.5v47.5q0 39 -1 77.5t-1 77.5q0 29 1 57t1 57q0 20 20 20h42zM214 834q0 -14 -9 -23.5t-23 -9.5q-12 0 -18.5 10t-6.5 21q0 14 7.5 22t21.5 8
q11 0 19.5 -8.5t8.5 -19.5zM116 834q0 -14 -9 -23.5t-23 -9.5q-12 0 -18.5 10t-6.5 21q0 14 7.5 22t21.5 8q11 0 19.5 -8.5t8.5 -19.5z" />
    <glyph glyph-name="Yacute" unicode="&#xdd;" horiz-adv-x="346" 
d="M221 724l8 22t19 11q4 0 11 -1.5t15 -4t15 -5t10 -4.5q10 -8 10 -19q0 -6 -1.5 -11.5t-3.5 -10.5l-59.5 -178.5t-57.5 -179.5q-17 -56 -34 -110.5t-34 -109.5q-8 -26 -16 -52.5t-18 -52.5q-7 -18 -19.5 -19t-28.5 -1q-2 0 -4 -0.5t-4 -0.5q-11 0 -20 6.5t-9 17.5
q0 6 3 12q3 15 10 34t12 34q12 35 22 69.5t20 69.5q11 37 22.5 73.5t20.5 74.5l-4 16l-4 16l-54 175q-6 20 -12 39.5t-13 39.5q-3 10 -6.5 19t-5.5 19v-1q-2 5 -3.5 10t-1.5 10q0 11 7.5 18.5t18.5 7.5q9 0 14.5 -5.5t8.5 -13.5q14 -35 26.5 -77t23.5 -79q8 -26 16.5 -52.5
t16.5 -52.5zM198 908q7 0 13 -5.5t6 -12.5q0 -4 -9 -17.5t-20 -29.5t-21.5 -30.5t-14.5 -19.5q-3 -4 -7 -7t-9 -3q-8 0 -13.5 5.5t-5.5 13.5q0 5 6 14.5t13.5 20t15.5 20t11 14.5q4 5 7 11.5t8 11.5q4 5 9 9.5t11 4.5z" />
    <glyph glyph-name="Thorn" unicode="&#xde;" horiz-adv-x="223" 
d="M28 0q-13 0 -19.5 8t-6.5 20t1.5 23.5t1.5 23.5q0 19 -1 38t-1 38q0 45 1.5 88.5t1.5 88.5q0 16 -1 31.5t-1 31.5q0 59 1.5 116.5t1.5 116.5q0 13 -0.5 28.5t-0.5 31.5t0.5 31t2.5 27q2 11 14.5 14.5t21.5 3.5q26 0 26 -27q0 -26 -0.5 -52t-1.5 -52q10 5 20 5
q25 0 41.5 -14.5t27 -36.5t15 -46.5t4.5 -43.5q0 -44 -7 -84.5t-20 -82.5q-5 -15 -10 -31t-13.5 -30.5t-20 -25.5t-27.5 -16q-4 -2 -8 -2.5t-8 -1.5q1 -33 0.5 -65.5t-0.5 -65.5q0 -11 1 -26.5t-1.5 -29t-10 -23t-24.5 -9.5zM95 592q-10 0 -19 -9q-8 -8 -9 -19t-1 -21
q0 -39 -0.5 -78t-1.5 -78q0 -28 -1.5 -55.5t-1.5 -55.5v-8t1 -8q21 7 35.5 34.5t24 62t14 68.5t4.5 53q0 14 -1 29.5t-4.5 30.5t-10.5 28t-19 22q-4 4 -10 4z" />
    <glyph glyph-name="germandbls" unicode="&#xdf;" horiz-adv-x="554" 
d="M340 343q17 -10 44.5 -33t52 -55t38.5 -70.5t5 -78.5q-8 -32 -30 -56t-57 -38q-36 -14 -76 -14q-57 0 -98 26q-9 7 -10 16q-2 7 3 18q8 11 20 11q5 0 13 -4q28 -19 72 -19q30 0 58 11q17 6 34.5 20t23.5 40q6 28 -5.5 57t-31 54.5t-42 45t-37.5 27.5q-31 18 -37 45
q-5 21 4.5 41.5t22.5 38.5q19 26 34.5 63.5t26.5 81.5q5 23 2.5 52.5t-19.5 53.5q-28 38 -91 43q-54 5 -95 -36q-37 -35 -56.5 -97t-15.5 -133q1 -33 2.5 -78t2 -94t1 -96.5t1 -86t0.5 -62v-24.5q0 -9 -5 -14q-7 -5 -20 -4h-8q-7 -1 -13.5 -1.5t-12.5 -0.5q-4 0 -10 0.5
t-12 1.5t-10.5 3t-4.5 6v25.5v63.5t-0.5 87.5t-1 98.5t-2 95.5t-2.5 78.5q-4 79 20 145t69 109q13 13 34.5 24.5t45 19.5t46.5 12.5t41 4.5h10q54 -5 83 -24t43 -39q21 -29 27.5 -67.5t-3.5 -77.5q-23 -100 -68 -162q-22 -31 -19 -42q1 -5 13 -13z" />
    <glyph glyph-name="agrave" unicode="&#xe0;" horiz-adv-x="355" 
d="M96 726q6 0 11 -4.5t9 -9.5q5 -5 8 -11.5t7 -11.5q3 -5 11 -14.5t15.5 -20t13.5 -20t6 -13.5q0 -8 -5.5 -14t-13.5 -6q-5 0 -9 3t-7 7q-4 5 -14.5 19.5t-22 30.5t-20 29.5t-8.5 17.5q0 7 6 12.5t13 5.5zM203 303q0 5 -0.5 7.5t-5.5 5.5q-11 8 -30.5 15.5t-33.5 7.5
q-15 0 -27.5 -8t-21.5 -20t-16 -26t-12 -26q-6 -14 -8 -29.5t-2 -31.5q0 -38 7 -71t36 -60q5 -5 15.5 -13t17.5 -8q18 0 33 11t25.5 27.5t16.5 35.5t6 35v148zM149 555q28 0 48.5 -11.5t34 -30t21 -42t9.5 -48.5q6 -77 8.5 -153t2.5 -153q0 -24 1 -47.5t1 -47.5
q0 -9 -3.5 -13t-9.5 -5.5t-12.5 -2t-12.5 -0.5q-2 0 -4 -0.5t-4 -0.5q-15 0 -19.5 13.5t-5.5 24.5q-30 -37 -80 -37q-9 0 -17.5 0.5t-16.5 5.5q-41 21 -58 62l-3 9q-4 9 -8.5 16.5t-6.5 17.5q-11 42 -11 83q0 29 8.5 62t26 61.5t43 47.5t59.5 19q31 0 60 -19q0 10 -1 34.5
t-5.5 49t-13 43.5t-23.5 19q-19 0 -32 -9.5t-22 -24t-15.5 -31t-12.5 -30.5l-9 -4q-20 5 -20 22q0 2 0.5 4t0.5 4q3 19 11.5 38.5t21.5 36t30.5 27t38.5 10.5z" />
    <glyph glyph-name="aacute" unicode="&#xe1;" horiz-adv-x="355" 
d="M149 555q28 0 48.5 -11.5t34 -30t21 -42t9.5 -48.5q6 -77 8.5 -153t2.5 -153q0 -24 1 -47.5t1 -47.5q0 -9 -3.5 -13t-9.5 -5.5t-12.5 -2t-12.5 -0.5q-2 0 -4 -0.5t-4 -0.5q-15 0 -19.5 13.5t-5.5 24.5q-30 -37 -78 -37q-10 0 -18.5 0.5t-17.5 5.5q-19 10 -34.5 26
t-23.5 36l-3 9q-4 9 -8.5 16.5t-6.5 17.5q-11 42 -11 83q0 29 8.5 62t26 61.5t43 47.5t59.5 19q31 0 60 -19q0 10 -1 34.5t-5.5 49t-13 43.5t-23.5 19q-19 0 -32 -9.5t-22 -24t-15.5 -31t-12.5 -30.5l-9 -4q-20 5 -20 22q0 2 0.5 4t0.5 4q3 19 11.5 38.5t21.5 36t30.5 27
t38.5 10.5zM203 303q0 5 -0.5 7.5t-5.5 5.5q-11 8 -30.5 15.5t-33.5 7.5q-15 0 -27.5 -8t-21.5 -20t-16 -26t-12 -26q-6 -14 -8 -29.5t-2 -31.5q0 -38 7 -71t36 -60q5 -5 15.5 -13t17.5 -8q18 0 33 11t25.5 27.5t16.5 35.5t6 35v148zM209 718q7 0 13 -5.5t6 -12.5
q0 -4 -9 -17.5t-20 -29.5t-21.5 -30.5t-14.5 -19.5q-3 -4 -7 -7t-9 -3q-8 0 -13.5 6t-5.5 14q0 4 6 13.5t13.5 20t15.5 20t11 14.5q4 5 7 11.5t8 11.5q4 5 9 9.5t11 4.5z" />
    <glyph glyph-name="acircumflex" unicode="&#xe2;" horiz-adv-x="355" 
d="M149 555q28 0 48.5 -11.5t34 -30t21 -42t9.5 -48.5q6 -77 8.5 -153t2.5 -153q0 -24 1 -47.5t1 -47.5q0 -9 -3.5 -13t-9.5 -5.5t-12.5 -2t-12.5 -0.5q-2 0 -4 -0.5t-4 -0.5q-15 0 -19.5 13.5t-5.5 24.5q-30 -37 -78 -37q-10 0 -18.5 0.5t-17.5 5.5q-19 10 -34.5 26
t-23.5 36l-3 9q-4 9 -8.5 16.5t-6.5 17.5q-11 42 -11 83q0 29 8.5 62t26 61.5t43 47.5t59.5 19q31 0 60 -19q0 10 -1 34.5t-5.5 49t-13 43.5t-23.5 19q-19 0 -32 -9.5t-22 -24t-15.5 -31t-12.5 -30.5l-9 -4q-20 5 -20 22q0 2 0.5 4t0.5 4q3 19 11.5 38.5t21.5 36t30.5 27
t38.5 10.5zM203 303q0 5 -0.5 7.5t-5.5 5.5q-11 8 -30.5 15.5t-33.5 7.5q-15 0 -27.5 -8t-21.5 -20t-16 -26t-12 -26q-6 -14 -8 -29.5t-2 -31.5q0 -38 7 -71t36 -60q5 -5 15.5 -13t17.5 -8q18 0 33 11t25.5 27.5t16.5 35.5t6 35v148zM204 588q-6 0 -11 7q-3 4 -8 16
t-10.5 26t-11 27.5t-8.5 20.5q-11 -23 -22 -45l-22 -44q-2 -3 -3.5 -5.5t-6.5 -2.5t-14 3.5t-9 10.5q0 4 8.5 22.5t19 39.5t20.5 40t14 24q3 4 6 6.5t8 2.5t9 -3.5t6 -8.5l12 -24t18 -38.5t16 -38t7 -21.5q0 -6 -6 -10.5t-12 -4.5z" />
    <glyph glyph-name="atilde" unicode="&#xe3;" horiz-adv-x="355" 
d="M149 555q28 0 48.5 -11.5t34 -30t21 -42t9.5 -48.5q6 -77 8.5 -153t2.5 -153q0 -24 1 -47.5t1 -47.5q0 -9 -3.5 -13t-9.5 -5.5t-12.5 -2t-12.5 -0.5q-2 0 -4 -0.5t-4 -0.5q-15 0 -19.5 13.5t-5.5 24.5q-30 -37 -78 -37q-10 0 -18.5 0.5t-17.5 5.5q-19 10 -34.5 26
t-23.5 36l-3 9q-4 9 -8.5 16.5t-6.5 17.5q-11 42 -11 83q0 29 8.5 62t26 61.5t43 47.5t59.5 19q31 0 60 -19q0 10 -1 34.5t-5.5 49t-13 43.5t-23.5 19q-19 0 -32 -9.5t-22 -24t-15.5 -31t-12.5 -30.5l-9 -4q-20 5 -20 22q0 2 0.5 4t0.5 4q3 19 11.5 38.5t21.5 36t30.5 27
t38.5 10.5zM203 303q0 5 -0.5 7.5t-5.5 5.5q-11 8 -30.5 15.5t-33.5 7.5q-15 0 -27.5 -8t-21.5 -20t-16 -26t-12 -26q-6 -14 -8 -29.5t-2 -31.5q0 -38 7 -71t36 -60q5 -5 15.5 -13t17.5 -8q18 0 33 11t25.5 27.5t16.5 35.5t6 35v148zM74 604q-8 0 -11 6.5t-3 12.5
q0 9 3.5 21.5t10 23.5t15.5 18.5t20 7.5q14 0 24 -12t18.5 -26.5t16 -26.5t16.5 -12q5 0 10 7t7 11q6 12 9 27t3 29q0 8 3 14.5t12 6.5q16 0 16 -17q0 -12 -3 -30.5t-10 -36.5t-17.5 -30.5t-26.5 -12.5q-21 0 -33 11.5t-19.5 25t-13 25t-13.5 11.5q-5 0 -8 -8.5t-6.5 -18.5
t-8 -18.5t-11.5 -8.5z" />
    <glyph glyph-name="adieresis" unicode="&#xe4;" horiz-adv-x="355" 
d="M149 555q28 0 48.5 -11.5t34 -30t21 -42t9.5 -48.5q6 -77 8.5 -153t2.5 -153q0 -24 1 -47.5t1 -47.5q0 -9 -3.5 -13t-9.5 -5.5t-12.5 -2t-12.5 -0.5q-2 0 -4 -0.5t-4 -0.5q-15 0 -19.5 13.5t-5.5 24.5q-30 -37 -78 -37q-10 0 -18.5 0.5t-17.5 5.5q-19 10 -34.5 26
t-23.5 36l-3 9q-4 9 -8.5 16.5t-6.5 17.5q-11 42 -11 83q0 29 8.5 62t26 61.5t43 47.5t59.5 19q31 0 60 -19q0 10 -1 34.5t-5.5 49t-13 43.5t-23.5 19q-19 0 -32 -9.5t-22 -24t-15.5 -31t-12.5 -30.5l-9 -4q-20 5 -20 22q0 2 0.5 4t0.5 4q3 19 11.5 38.5t21.5 36t30.5 27
t38.5 10.5zM203 303q0 5 -0.5 7.5t-5.5 5.5q-11 8 -30.5 15.5t-33.5 7.5q-15 0 -27.5 -8t-21.5 -20t-16 -26t-12 -26q-6 -14 -8 -29.5t-2 -31.5q0 -38 7 -71t36 -60q5 -5 15.5 -13t17.5 -8q18 0 33 11t25.5 27.5t16.5 35.5t6 35v148zM230 625q0 -14 -9 -23.5t-23 -9.5
q-12 0 -18.5 10t-6.5 21q0 14 7.5 22t21.5 8q11 0 19.5 -8.5t8.5 -19.5zM132 625q0 -14 -9 -23.5t-23 -9.5q-12 0 -18.5 10t-6.5 21q0 14 7.5 22t21.5 8q11 0 19.5 -8.5t8.5 -19.5z" />
    <glyph glyph-name="aring" unicode="&#xe5;" horiz-adv-x="355" 
d="M149 555q28 0 48.5 -11.5t34 -30t21 -42t9.5 -48.5q6 -77 8.5 -153t2.5 -153q0 -24 1 -47.5t1 -47.5q0 -9 -3.5 -13t-9.5 -5.5t-12.5 -2t-12.5 -0.5q-2 0 -4 -0.5t-4 -0.5q-15 0 -19.5 13.5t-5.5 24.5q-30 -37 -78 -37q-10 0 -18.5 0.5t-17.5 5.5q-19 10 -34.5 26
t-23.5 36l-3 9q-4 9 -8.5 16.5t-6.5 17.5q-11 42 -11 83q0 29 8.5 62t26 61.5t43 47.5t59.5 19q31 0 60 -19q0 10 -1 34.5t-5.5 49t-13 43.5t-23.5 19q-19 0 -32 -9.5t-22 -24t-15.5 -31t-12.5 -30.5l-9 -4q-20 5 -20 22q0 2 0.5 4t0.5 4q3 19 11.5 38.5t21.5 36t30.5 27
t38.5 10.5zM203 303q0 5 -0.5 7.5t-5.5 5.5q-11 8 -30.5 15.5t-33.5 7.5q-15 0 -27.5 -8t-21.5 -20t-16 -26t-12 -26q-6 -14 -8 -29.5t-2 -31.5q0 -38 7 -71t36 -60q5 -5 15.5 -13t17.5 -8q18 0 33 11t25.5 27.5t16.5 35.5t6 35v148zM147 733q24 0 36 -21t12 -42v-15
q0 -19 -5 -33.5t-22 -25.5q-9 -6 -20 -6q-13 0 -23 6.5t-16.5 16.5t-10 22.5t-3.5 23.5q0 12 2.5 25t8.5 24t16 18t25 7zM144 635q11 0 13 11t2 19q0 3 -2.5 13.5t-6.5 10.5q-9 0 -14 -11.5t-5 -19.5q0 -6 2.5 -14.5t10.5 -8.5z" />
    <glyph glyph-name="ae" unicode="&#xe6;" horiz-adv-x="501" 
d="M402 118q8 0 13 -5t5 -13q0 -6 -3.5 -15.5t-8.5 -19t-11 -17.5t-10 -12q-17 -15 -38 -24t-44 -9q-30 0 -49 12t-36 37v-16.5t-2 -16t-7.5 -12.5t-16.5 -5q-15 0 -17 12.5t-3 23.5q-11 -14 -29.5 -24t-37.5 -10q-17 0 -30 9q-20 13 -34.5 32t-23.5 41.5t-13 47t-4 47.5
q0 25 7 55.5t22 56.5t37.5 44t52.5 18q13 0 26.5 -4t23.5 -12q-1 24 -3 48t-7 48q-2 10 -5 21t-17 11q-17 0 -28.5 -8.5t-19.5 -21.5t-14 -27.5t-11 -27.5l-9 -4q-18 5 -18 21q0 2 0.5 4t0.5 4q3 18 10.5 36t19 32.5t27 23.5t35.5 9q22 0 36.5 -9t23 -23.5t12.5 -33t5 -37.5
q6 19 15 38t21.5 34.5t29.5 25t40 9.5q24 0 40.5 -11t26.5 -28t14.5 -38t4.5 -41q0 -23 -5.5 -33.5t-15 -15t-23.5 -5t-32 -2.5q-16 -2 -31.5 -2.5t-31.5 -2.5q-2 -7 -4 -21t-3 -29.5t-1.5 -30.5t-0.5 -23q0 -16 2 -42t7.5 -53t15.5 -49.5t26 -30.5q3 -2 9 -4t9 -2
q19 0 33.5 17.5t22.5 32.5q4 7 6.5 11.5t10.5 7.5zM363 401q0 14 -2.5 29t-10.5 26v-1q-7 10 -11.5 14.5t-17.5 4.5q-10 0 -19 -12.5t-16.5 -29t-12 -33.5t-5.5 -25q23 0 46 1.5t46 3.5q3 10 3 22zM107 49q16 0 28 10.5t20.5 26t13 32.5t4.5 30v131q0 8 -4 12q-9 8 -25.5 14
t-28.5 6q-14 0 -24 -7t-18 -18t-14 -23.5t-10 -22.5q-5 -12 -6.5 -25t-1.5 -26q0 -35 5.5 -66.5t33.5 -57.5q5 -4 13 -10t14 -6z" />
    <glyph glyph-name="ccedilla" unicode="&#xe7;" horiz-adv-x="272" 
d="M209 125q0 -7 -1.5 -13.5t-3.5 -12.5q-3 -13 -7.5 -29t-11.5 -31t-18 -26t-26 -13q-6 -1 -12 -1.5t-12 -0.5q-2 -5 -4.5 -11t-4.5 -11q31 2 47 -16.5t16 -48.5q0 -26 -17 -45.5t-43 -19.5q-6 0 -14.5 2.5t-16 6.5t-13 10t-5.5 14q0 7 5 12t12 5q6 0 9 -2t5.5 -4.5t6 -4.5
t9.5 -2q14 0 20 10.5t6 22.5q0 8 -7.5 16t-15.5 8q-4 0 -7.5 -1.5t-6.5 -3.5q-5 -5 -12 -5q-8 0 -14 6.5t-6 14.5q0 14 4 28t9 27q-24 11 -38.5 34.5t-22 52.5t-10 58.5t-3.5 52.5q-3 45 -3 89q0 17 1.5 42t5 53.5t10.5 56.5t19 51t28.5 37t40.5 14q26 0 41.5 -10t24 -26
t11.5 -36.5t3 -41.5q0 -8 -3 -18t-14 -10q-14 0 -16.5 8.5t-2.5 19.5t0.5 19t-0.5 15.5t-4.5 14.5t-10.5 16q-2 3 -5 5q-6 -4 -8 -7q-16 -17 -26 -38.5t-15.5 -45t-7.5 -48t-2 -46.5q0 -50 2 -99.5t7 -99.5q1 -9 4 -22t9 -26t14.5 -22t19.5 -9q17 0 25 16t13 35.5t10.5 35.5
t17.5 16q7 0 11 -6t4 -12zM94 -66l4 1q-1 -1 -4 -1z" />
    <glyph glyph-name="egrave" unicode="&#xe8;" horiz-adv-x="287" 
d="M85 721q6 0 11 -4.5t9 -9.5q5 -5 8 -11.5t7 -11.5q3 -5 11 -14.5t15.5 -20t13.5 -20t6 -13.5q0 -8 -5.5 -14t-13.5 -6q-5 0 -9 3t-7 7q-4 5 -14.5 19.5t-22 30.5t-20 29.5t-8.5 17.5q0 7 6 12.5t13 5.5zM194 410q3 12 3 24q0 10 -2 24t-7.5 26.5t-14.5 21t-22 8.5
q-5 0 -7 -1q-9 -3 -17.5 -17t-16 -31.5t-12.5 -34.5t-6 -26q18 0 35.5 1.5t35.5 1.5q8 0 16 2.5t15 0.5zM86 361q-1 -7 -2.5 -13t-2.5 -13q-3 -23 -4 -46.5t-1 -46.5q0 -17 2.5 -49.5t11 -64t23.5 -55t39 -23.5q18 0 27 10t15 22.5t12.5 22.5t20.5 10q8 0 12.5 -5.5
t4.5 -13.5q0 -6 -3 -16t-7.5 -20.5t-10 -19.5t-9.5 -13q-20 -20 -42 -22.5t-48 -2.5q-36 0 -59.5 23t-37.5 56t-19.5 70t-5.5 64q0 19 0.5 37.5t1.5 37.5q1 31 8 76t23 87t42.5 72t67.5 30q26 0 43.5 -12t28.5 -30.5t15.5 -41t4.5 -44.5q0 -25 -5.5 -37t-16 -16.5t-26 -5
t-34.5 -1.5q-17 -1 -34.5 -2.5t-34.5 -3.5z" />
    <glyph glyph-name="eacute" unicode="&#xe9;" horiz-adv-x="287" 
d="M86 361q-1 -7 -2.5 -13t-2.5 -13q-3 -23 -4 -46.5t-1 -46.5q0 -17 2.5 -49.5t11 -64t23.5 -55t39 -23.5q18 0 27 10t15 22.5t12.5 22.5t20.5 10q8 0 12.5 -5.5t4.5 -13.5q0 -6 -3 -16t-7.5 -20.5t-10 -19.5t-9.5 -13q-15 -16 -32.5 -20.5t-38.5 -4.5h-19q-36 0 -59.5 23
t-37.5 56t-19.5 70t-5.5 64q0 19 0.5 37.5t1.5 37.5q1 31 8 76t23 87t42.5 72t67.5 30q26 0 43.5 -12t28.5 -30.5t15.5 -41t4.5 -44.5q0 -25 -5.5 -37t-16 -16.5t-26 -5t-34.5 -1.5q-17 -1 -34.5 -2.5t-34.5 -3.5zM194 410q3 12 3 24q0 10 -2 24t-7.5 26.5t-14.5 21t-22 8.5
q-5 0 -7 -1q-9 -3 -17.5 -17t-16 -31.5t-12.5 -34.5t-6 -26q28 0 55 3q7 1 13.5 0.5t13.5 0.5q5 1 8.5 1.5t8.5 0.5h3zM193 716q7 0 13 -5.5t6 -12.5q0 -4 -9 -17.5t-20 -29.5t-21.5 -30.5t-14.5 -19.5q-3 -4 -7 -7t-9 -3q-8 0 -13.5 6t-5.5 14q0 4 6 13.5t13.5 20t15.5 20
t11 14.5q4 5 7 11.5t8 11.5q4 5 9 9.5t11 4.5z" />
    <glyph glyph-name="ecircumflex" unicode="&#xea;" horiz-adv-x="287" 
d="M86 361q-1 -7 -2.5 -13t-2.5 -13q-3 -23 -4 -46.5t-1 -46.5q0 -17 2.5 -49.5t11 -64t23.5 -55t39 -23.5q18 0 27 10t15 22.5t12.5 22.5t20.5 10q8 0 12.5 -5.5t4.5 -13.5q0 -6 -3 -16t-7.5 -20.5t-10 -19.5t-9.5 -13q-15 -16 -32.5 -20.5t-38.5 -4.5h-19q-36 0 -59.5 23
t-37.5 56t-19.5 70t-5.5 64q0 19 0.5 37.5t1.5 37.5q1 31 8 76t23 87t42.5 72t67.5 30q26 0 43.5 -12t28.5 -30.5t15.5 -41t4.5 -44.5q0 -25 -5.5 -37t-16 -16.5t-26 -5t-34.5 -1.5q-17 -1 -34.5 -2.5t-34.5 -3.5zM194 410q3 12 3 24q0 10 -2 24t-7.5 26.5t-14.5 21t-22 8.5
q-5 0 -7 -1q-9 -3 -17.5 -17t-16 -31.5t-12.5 -34.5t-6 -26q28 0 55 3q7 1 13.5 0.5t13.5 0.5q5 1 8.5 1.5t8.5 0.5h3zM193 585q-5 0 -7 2t-4 5q-11 17 -20.5 43.5t-17.5 46.5q-11 -23 -22 -44.5t-22 -44.5q-2 -3 -3.5 -6t-6.5 -3t-14.5 4t-9.5 10q0 4 8.5 23t19 40.5
t21 40.5t13.5 23q2 3 5.5 6t8.5 3q6 0 9.5 -3.5t6.5 -8.5t11.5 -23t18 -39t16.5 -38.5t7 -21.5q0 -6 -6 -10.5t-12 -4.5z" />
    <glyph glyph-name="edieresis" unicode="&#xeb;" horiz-adv-x="287" 
d="M86 361q-1 -7 -2.5 -13t-2.5 -13q-3 -23 -4 -46.5t-1 -46.5q0 -17 2.5 -49.5t11 -64t23.5 -55t39 -23.5q18 0 27 10t15 22.5t12.5 22.5t20.5 10q8 0 12.5 -5.5t4.5 -13.5q0 -6 -3 -16t-7.5 -20.5t-10 -19.5t-9.5 -13q-15 -16 -32.5 -20.5t-38.5 -4.5h-19q-36 0 -59.5 23
t-37.5 56t-19.5 70t-5.5 64q0 19 0.5 37.5t1.5 37.5q1 31 8 76t23 87t42.5 72t67.5 30q26 0 43.5 -12t28.5 -30.5t15.5 -41t4.5 -44.5q0 -25 -5.5 -37t-16 -16.5t-26 -5t-34.5 -1.5q-17 -1 -34.5 -2.5t-34.5 -3.5zM194 410q3 12 3 24q0 10 -2 24t-7.5 26.5t-14.5 21t-22 8.5
q-5 0 -7 -1q-9 -3 -17.5 -17t-16 -31.5t-12.5 -34.5t-6 -26q28 0 55 3q7 1 13.5 0.5t13.5 0.5q5 1 8.5 1.5t8.5 0.5h3zM214 626q0 -14 -9 -23.5t-23 -9.5q-12 0 -18.5 10t-6.5 21q0 14 7.5 22t21.5 8q11 0 19.5 -8.5t8.5 -19.5zM116 626q0 -14 -9 -23.5t-23 -9.5
q-12 0 -18.5 10t-6.5 21q0 14 7.5 22t21.5 8q11 0 19.5 -8.5t8.5 -19.5z" />
    <glyph glyph-name="igrave" unicode="&#xec;" horiz-adv-x="188" 
d="M29 718q6 0 11 -4.5t9 -9.5q5 -5 8 -11.5t7 -11.5q3 -5 11 -14.5t15.5 -20t13.5 -20t6 -13.5q0 -8 -5.5 -14t-13.5 -6q-5 0 -9 3t-7 7q-4 5 -14.5 19.5t-22 30.5t-20 29.5t-8.5 17.5q0 7 6 12.5t13 5.5zM42 33q0 39 2 77.5t2 77.5q0 85 0.5 168t0.5 167q0 17 6.5 22
t23.5 5h11t11 -1q14 -2 17 -7t3 -18q0 -41 1 -81.5t1 -81.5q0 -84 -2 -167t-2 -167q0 -17 -13 -22t-27 -5q-18 0 -26.5 7t-8.5 26z" />
    <glyph glyph-name="iacute" unicode="&#xed;" horiz-adv-x="168" 
d="M2 33q0 39 2 77.5t2 77.5q0 78 0.5 156t0.5 156q0 10 -0.5 19.5t1.5 16t8.5 10.5t20.5 4h11t11 -1q14 -2 17 -7t3 -18q0 -41 1 -81.5t1 -81.5q0 -82 -2 -164t-2 -164v-11t-4 -11q-5 -6 -16.5 -8.5t-19.5 -2.5q-18 0 -26.5 7t-8.5 26zM99 724q7 0 13 -5.5t6 -12.5
q0 -4 -9 -17.5t-20 -29.5t-21.5 -30.5t-14.5 -19.5q-3 -4 -7 -7t-9 -3q-8 0 -13.5 6t-5.5 14q0 4 6 13.5t13.5 20t15.5 20t11 14.5q4 5 7 11.5t8 11.5q4 5 9 9.5t11 4.5z" />
    <glyph glyph-name="icircumflex" unicode="&#xee;" horiz-adv-x="168" 
d="M32 33q0 39 2 77.5t2 77.5q0 78 0.5 156t0.5 156q0 10 -0.5 19.5t1.5 16t8.5 10.5t20.5 4h11t11 -1q14 -2 17 -7t3 -18q0 -41 1 -81.5t1 -81.5q0 -82 -2 -164t-2 -164v-11t-4 -11q-5 -6 -16.5 -8.5t-19.5 -2.5q-18 0 -26.5 7t-8.5 26zM123 585q-5 0 -7 2t-4 5
q-11 17 -20.5 43.5t-17.5 46.5q-11 -23 -22 -44.5t-22 -44.5q-2 -3 -3.5 -6t-6.5 -3t-14 4t-9 10q0 4 8.5 23t19 40.5t20.5 40.5t13 23q2 3 5.5 6t8.5 3q6 0 9.5 -3.5t6.5 -8.5t11.5 -23t18 -39t16.5 -38.5t7 -21.5q0 -6 -6 -10.5t-12 -4.5z" />
    <glyph glyph-name="idieresis" unicode="&#xef;" horiz-adv-x="168" 
d="M32 33q0 39 2 77.5t2 77.5q0 78 0.5 156t0.5 156q0 10 -0.5 19.5t1.5 16t8.5 10.5t20.5 4h11t11 -1q14 -2 17 -7t3 -18q0 -41 1 -81.5t1 -81.5q0 -82 -2 -164t-2 -164v-11t-4 -11q-5 -6 -16.5 -8.5t-19.5 -2.5q-18 0 -26.5 7t-8.5 26zM159 626q0 -14 -9 -23.5t-23 -9.5
q-12 0 -18.5 10t-6.5 21q0 14 7.5 22t21.5 8q11 0 19.5 -8.5t8.5 -19.5zM61 626q0 -14 -9 -23.5t-23 -9.5q-12 0 -18.5 10t-6.5 21q0 14 7.5 22t21.5 8q11 0 19.5 -8.5t8.5 -19.5z" />
    <glyph glyph-name="eth" unicode="&#xf0;" horiz-adv-x="241" 
d="M73 -1q-26 0 -39.5 17.5t-20.5 42t-8 50.5t-1 44q0 40 5 83t17 84t31.5 79t48.5 68q-6 26 -14.5 50t-19.5 48q-6 -8 -12 -16.5t-12 -17.5q-3 -4 -5.5 -7.5t-8.5 -3.5q-8 0 -12.5 6t-4.5 13q0 5 5 13.5t11 18.5t12.5 18.5t9.5 13.5q-3 8 -11 26.5t-17 38t-15.5 36.5
t-6.5 22q0 4 4 9.5t10 11t12 9t10 3.5q9 0 13 -7t7 -14q9 -23 18 -45t19 -45q2 2 5.5 6t8 8.5t8.5 8t7 3.5q8 0 15 -7t7 -15q0 -3 -4.5 -8.5t-10 -12.5t-11 -12.5t-7.5 -8.5q6 -12 10 -24.5t9 -24.5q26 -69 37.5 -139t11.5 -143q0 -27 -2 -65t-9.5 -76.5t-21.5 -71.5
t-37 -50q-9 -7 -19.5 -12t-21.5 -5zM116 421q-47 -66 -63 -135t-16 -149q0 -7 0.5 -23t3 -32.5t8 -29t16.5 -12.5q9 0 16 8t12.5 18.5t9.5 21.5t6 18q4 14 5 27t3 27q3 31 6 61t3 61q0 35 -2.5 69.5t-7.5 69.5z" />
    <glyph glyph-name="ntilde" unicode="&#xf1;" 
d="M140 498q-20 0 -33.5 -16.5t-21.5 -39.5t-12 -47t-4 -39q0 -80 3.5 -159.5t3.5 -159.5q0 -18 -5 -28.5t-26 -10.5q-20 0 -26 8t-7 27q-3 55 -3 110t-1 111q-1 53 -1.5 104.5t-2.5 104.5q-1 18 -1.5 35.5t-0.5 35.5q0 2 0.5 3t0.5 3l8 5q7 0 13.5 2t13.5 2q10 0 15.5 -6
t8 -14.5t3 -18t0.5 -16.5q11 21 28 39.5t43 18.5q8 0 14.5 -2.5t12.5 -5.5q21 -10 31.5 -28.5t15.5 -40.5t6 -45t2 -42q3 -36 3 -73q0 -41 -1.5 -81t-1.5 -81q0 -30 0.5 -60t0.5 -60q0 -12 -3.5 -24t-18.5 -12q-14 0 -17.5 9t-3.5 20q0 73 1.5 146t1.5 146q0 20 -0.5 39
t-0.5 39q0 10 -0.5 27t-4 33.5t-11 29t-22.5 12.5zM37 612q-8 0 -11 6.5t-3 12.5q0 9 3.5 21.5t10 23.5t15.5 18.5t20 7.5q14 0 24 -12t18.5 -26.5t16 -26.5t16.5 -12q5 0 10 7t7 11q6 12 9 27t3 29q0 8 3 14.5t12 6.5q16 0 16 -17q0 -12 -3 -30.5t-10 -36.5t-17.5 -30.5
t-26.5 -12.5q-21 0 -33 11.5t-19.5 25t-13 25t-13.5 11.5q-5 0 -8 -8.5t-6.5 -18.5t-8 -18.5t-11.5 -8.5z" />
    <glyph glyph-name="ograve" unicode="&#xf2;" horiz-adv-x="295" 
d="M61 711q6 0 11.5 -4t8.5 -9q4 -6 7.5 -12t7.5 -11q3 -5 11 -14.5t15.5 -20t13.5 -20t6 -14.5q0 -8 -5.5 -13.5t-13.5 -5.5q-9 0 -16 10q-4 5 -14.5 19.5t-21.5 30.5t-19.5 30t-8.5 17q0 7 5.5 12t12.5 5zM125 498q-11 0 -18 -16t-12 -41t-8 -55t-4 -57.5t-1.5 -50
t-0.5 -31.5q0 -14 2 -38t6 -49t9.5 -47.5t12.5 -34.5q5 -9 11 -15.5t16 -11.5q11 0 21.5 20.5t18.5 46.5t13.5 51t7.5 35q2 14 3 28t1 28q0 25 -1 56t-6 62t-16 58.5t-31 46.5q-3 3 -11.5 9t-12.5 6zM110 549q34 0 54.5 -22t35.5 -48q14 -24 22 -52.5t12 -58.5t5 -60t1 -58
q0 -50 -10.5 -101.5t-32.5 -96.5q-11 -22 -26.5 -37t-41.5 -15q-27 0 -46 10.5t-32.5 27.5t-21.5 39t-12 45q-15 85 -15 172q0 22 2.5 56t9 69t17.5 65.5t28 46.5q10 9 24 13.5t27 4.5z" />
    <glyph glyph-name="oacute" unicode="&#xf3;" horiz-adv-x="295" 
d="M110 549q34 0 54.5 -22t35.5 -48q14 -24 22 -52.5t12 -58.5t5 -60t1 -58q0 -50 -10.5 -101.5t-32.5 -96.5q-11 -22 -26.5 -37t-41.5 -15q-27 0 -46 10.5t-32.5 27.5t-21.5 39t-12 45q-15 85 -15 172q0 22 2.5 56t9 69t17.5 65.5t28 46.5q10 9 24 13.5t27 4.5zM125 498
q-11 0 -18 -16t-12 -41t-8 -55t-4 -57.5t-1.5 -50t-0.5 -31.5q0 -14 2 -38t6 -49t9.5 -47.5t12.5 -34.5q5 -9 11 -15.5t16 -11.5q11 0 21.5 20.5t18.5 46.5t13.5 51t7.5 35q2 14 3 28t1 28q0 25 -1 56t-6 62t-16 58.5t-31 46.5q-3 3 -11.5 9t-12.5 6zM161 714q7 0 13 -5.5
t6 -12.5q0 -4 -9 -17.5t-20 -29.5t-21.5 -30.5t-14.5 -19.5q-3 -4 -7 -7t-9 -3q-8 0 -13.5 5.5t-5.5 13.5q0 5 6 14.5t13.5 20t15.5 20t11 14.5q4 5 7 11.5t8 11.5q4 5 9 9.5t11 4.5z" />
    <glyph glyph-name="ocircumflex" unicode="&#xf4;" horiz-adv-x="295" 
d="M110 549q34 0 54.5 -22t35.5 -48q14 -24 22 -52.5t12 -58.5t5 -60t1 -58q0 -50 -10.5 -101.5t-32.5 -96.5q-11 -22 -26.5 -37t-41.5 -15q-27 0 -46 10.5t-32.5 27.5t-21.5 39t-12 45q-15 85 -15 172q0 22 2.5 56t9 69t17.5 65.5t28 46.5q10 9 24 13.5t27 4.5zM125 498
q-11 0 -18 -16t-12 -41t-8 -55t-4 -57.5t-1.5 -50t-0.5 -31.5q0 -14 2 -38t6 -49t9.5 -47.5t12.5 -34.5q5 -9 11 -15.5t16 -11.5q11 0 21.5 20.5t18.5 46.5t13.5 51t7.5 35q2 14 3 28t1 28q0 25 -1 56t-6 62t-16 58.5t-31 46.5q-3 3 -11.5 9t-12.5 6zM163 575q-5 0 -7 2
t-4 5q-11 17 -20.5 43.5t-17.5 46.5q-11 -23 -22 -44.5t-22 -44.5q-2 -3 -3.5 -6t-6.5 -3t-14.5 4t-9.5 10q0 4 8.5 23t19 40.5t21 40.5t13.5 23q2 3 5.5 6t8.5 3q6 0 9.5 -3.5t6.5 -8.5t11.5 -23t18 -39t16.5 -38.5t7 -21.5q0 -6 -6 -10.5t-12 -4.5z" />
    <glyph glyph-name="otilde" unicode="&#xf5;" horiz-adv-x="295" 
d="M110 549q34 0 54.5 -22t35.5 -48q14 -24 22 -52.5t12 -58.5t5 -60t1 -58q0 -50 -10.5 -101.5t-32.5 -96.5q-11 -22 -26.5 -37t-41.5 -15q-27 0 -46 10.5t-32.5 27.5t-21.5 39t-12 45q-15 85 -15 172q0 22 2.5 56t9 69t17.5 65.5t28 46.5q10 9 24 13.5t27 4.5zM125 498
q-11 0 -18 -16t-12 -41t-8 -55t-4 -57.5t-1.5 -50t-0.5 -31.5q0 -14 2 -38t6 -49t9.5 -47.5t12.5 -34.5q5 -9 11 -15.5t16 -11.5q11 0 21.5 20.5t18.5 46.5t13.5 51t7.5 35q2 14 3 28t1 28q0 25 -1 56t-6 62t-16 58.5t-31 46.5q-3 3 -11.5 9t-12.5 6zM48 602q-8 0 -11 6.5
t-3 12.5q0 9 3.5 21.5t10 23.5t15.5 18.5t20 7.5q14 0 24 -12t18.5 -26.5t16 -26.5t16.5 -12q5 0 10 7t7 11q6 12 9 27t3 29q0 8 3 14.5t12 6.5q16 0 16 -17q0 -12 -3 -30.5t-10 -36.5t-17.5 -30.5t-26.5 -12.5q-21 0 -33 11.5t-19.5 25t-13 25t-13.5 11.5q-5 0 -8 -8.5
t-6.5 -18.5t-8 -18.5t-11.5 -8.5z" />
    <glyph glyph-name="odieresis" unicode="&#xf6;" horiz-adv-x="295" 
d="M110 549q34 0 54.5 -22t35.5 -48q14 -24 22 -52.5t12 -58.5t5 -60t1 -58q0 -50 -10.5 -101.5t-32.5 -96.5q-11 -22 -26.5 -37t-41.5 -15q-27 0 -46 10.5t-32.5 27.5t-21.5 39t-12 45q-15 85 -15 172q0 22 2.5 56t9 69t17.5 65.5t28 46.5q10 9 24 13.5t27 4.5zM125 498
q-11 0 -18 -16t-12 -41t-8 -55t-4 -57.5t-1.5 -50t-0.5 -31.5q0 -14 2 -38t6 -49t9.5 -47.5t12.5 -34.5q5 -9 11 -15.5t16 -11.5q11 0 21.5 20.5t18.5 46.5t13.5 51t7.5 35q2 14 3 28t1 28q0 25 -1 56t-6 62t-16 58.5t-31 46.5q-3 3 -11.5 9t-12.5 6zM190 624
q0 -14 -9 -23.5t-23 -9.5q-12 0 -18.5 10t-6.5 21q0 14 7.5 22t21.5 8q11 0 19.5 -8.5t8.5 -19.5zM92 624q0 -14 -9 -23.5t-23 -9.5q-12 0 -18.5 10t-6.5 21q0 14 7.5 22t21.5 8q11 0 19.5 -8.5t8.5 -19.5z" />
    <glyph glyph-name="divide" unicode="&#xf7;" horiz-adv-x="280" 
d="M85 127q0 29 29 29q11 0 19.5 -8.5t8.5 -19.5q0 -14 -9 -23.5t-23 -9.5q-12 0 -18.5 10.5t-6.5 21.5zM110 239q-12 0 -18.5 10t-6.5 21q0 14 7.5 22t21.5 8q11 0 19.5 -8.5t8.5 -19.5q0 -14 -9 -23.5t-23 -9.5zM226 192q0 -6 -5 -9t-10 -3q-31 0 -61.5 -1t-61.5 -1
q-17 0 -33 1t-33 1t-17 19q0 13 3 16.5t17 3.5q45 0 90 1t90 1q10 0 15.5 -3t5.5 -14v-12z" />
    <glyph glyph-name="oslash" unicode="&#xf8;" horiz-adv-x="295" 
d="M21 -30q0 18 7.5 39t11.5 39q-13 21 -21 52.5t-12.5 65.5t-6 67t-1.5 58q0 24 2.5 58t8.5 68.5t16.5 65t27.5 48.5q9 10 23 14.5t28 4.5q20 0 37.5 -10.5t28.5 -25.5q2 8 7.5 17.5t15.5 9.5q22 0 22 -22q0 -11 -5.5 -27.5t-8.5 -28.5q21 -48 26 -101t5 -105t-10 -104
t-32 -99q-12 -26 -29 -40t-46 -14q-11 0 -21 3.5t-19 8.5q-2 -6 -4.5 -17t-6.5 -22t-9.5 -19t-13.5 -8q-10 0 -15.5 7.5t-5.5 16.5zM82 197q20 66 40 130.5t34 131.5q-5 8 -10 15t-12 13q-4 2 -7 5t-8 3q-9 0 -15.5 -15.5t-11 -39.5t-7.5 -52.5t-4.5 -55.5t-2 -48t-0.5 -30
q0 -14 1 -28.5t3 -28.5zM182 392q-12 -42 -24 -83.5t-23 -83.5q-8 -32 -18 -62.5t-17 -62.5q4 -11 11.5 -25.5t18.5 -19.5q11 0 21 20t18 46t13 50.5t7 34.5q2 12 2.5 24.5t0.5 24.5q0 35 -1 69t-9 68z" />
    <glyph glyph-name="ugrave" unicode="&#xf9;" horiz-adv-x="335" 
d="M63 720q6 0 11.5 -4t8.5 -9q4 -6 7 -12t8 -11q3 -4 11 -14t15.5 -20.5t13.5 -20.5t6 -14q0 -8 -5.5 -14t-13.5 -6q-5 0 -9 3.5t-7 7.5q-4 5 -14.5 19.5t-21.5 30.5t-19.5 29.5t-8.5 17.5q0 7 5.5 12t12.5 5zM198 554q7 0 14 -1.5t14 -3.5q17 -3 25.5 -9t8.5 -26
q0 -9 -0.5 -18.5t-1.5 -18.5q-2 -51 -3.5 -101.5t-1.5 -101.5v-64.5t2 -64.5q2 -26 6 -51t4 -51q0 -14 -8 -26t-23 -12t-23 8.5t-11.5 21.5t-4.5 26.5t-2 24.5q-4 -15 -10.5 -30t-17 -27t-24 -19.5t-30.5 -7.5q-43 0 -64 36q-14 24 -23 58.5t-13.5 72t-6 74t-1.5 64.5
q0 29 1 56.5t3 56.5q2 27 1.5 59t4.5 58q2 8 5.5 14.5t13.5 6.5q11 0 18.5 -8t7.5 -19q0 -14 -1 -26.5t-2 -26.5q-2 -35 -3 -70.5t-1 -70.5v-59q0 -19 1 -52.5t6 -68t15 -64t27 -40.5q1 -1 4 -2t5 -1q13 0 22.5 13.5t15.5 34.5t10 47t5.5 50t2.5 44t1 30q2 35 4.5 68.5
t2.5 68.5v99q0 6 -1 12t-1 12q0 12 8 18.5t19 6.5z" />
    <glyph glyph-name="uacute" unicode="&#xfa;" horiz-adv-x="335" 
d="M198 554q7 0 14 -1.5t14 -3.5q17 -3 25.5 -9t8.5 -26q0 -9 -0.5 -18.5t-1.5 -18.5q-2 -51 -3.5 -101.5t-1.5 -101.5v-64.5t2 -64.5q2 -26 6 -51t4 -51q0 -14 -8 -26t-23 -12t-23 8.5t-11.5 21.5t-4.5 26.5t-2 24.5q-4 -15 -10.5 -30t-17 -27t-24 -19.5t-30.5 -7.5
q-43 0 -64 36q-14 24 -23 58.5t-13.5 72t-6 74t-1.5 64.5q0 29 1 56.5t3 56.5q2 27 1.5 59t4.5 58q2 8 5.5 14.5t13.5 6.5q11 0 18.5 -8t7.5 -19q0 -14 -1 -26.5t-2 -26.5q-3 -43 -3.5 -86t-0.5 -86q0 -21 0.5 -59t5 -77t14.5 -72t29 -45q1 -1 4 -2t5 -1q13 0 22.5 13.5
t15.5 35t10 47t5.5 50t2.5 44t1 29.5q2 35 4.5 68.5t2.5 68.5v99q0 6 -1 12t-1 12q0 12 8 18.5t19 6.5zM176 718q7 0 13 -5.5t6 -12.5q0 -4 -9 -17.5t-20 -29.5t-21.5 -30.5t-14.5 -19.5q-3 -4 -7 -7t-9 -3q-8 0 -13.5 6t-5.5 14q0 4 6 13.5t13.5 20t15.5 20t11 14.5
q4 5 7 11.5t8 11.5q4 5 9 9.5t11 4.5z" />
    <glyph glyph-name="ucircumflex" unicode="&#xfb;" horiz-adv-x="335" 
d="M198 554q7 0 14 -1.5t14 -3.5q17 -3 25.5 -9t8.5 -26q0 -9 -0.5 -18.5t-1.5 -18.5q-2 -51 -3.5 -101.5t-1.5 -101.5v-64.5t2 -64.5q2 -26 6 -51t4 -51q0 -14 -8 -26t-23 -12t-23 8.5t-11.5 21.5t-4.5 26.5t-2 24.5q-4 -15 -10.5 -30t-17 -27t-24 -19.5t-30.5 -7.5
q-43 0 -64 36q-14 24 -23 58.5t-13.5 72t-6 74t-1.5 64.5q0 29 1 56.5t3 56.5q2 27 1.5 59t4.5 58q2 8 5.5 14.5t13.5 6.5q11 0 18.5 -8t7.5 -19q0 -14 -1 -26.5t-2 -26.5q-3 -43 -3.5 -86t-0.5 -86q0 -21 0.5 -59t5 -77t14.5 -72t29 -45q1 -1 4 -2t5 -1q13 0 22.5 13.5
t15.5 35t10 47t5.5 50t2.5 44t1 29.5q2 35 4.5 68.5t2.5 68.5v99q0 6 -1 12t-1 12q0 12 8 18.5t19 6.5zM173 595q-5 0 -7 2t-4 5q-11 17 -20.5 43.5t-17.5 46.5q-11 -23 -22 -44.5t-22 -44.5q-2 -3 -3.5 -6t-6.5 -3t-14.5 4t-9.5 10q0 4 8.5 23t19 40.5t21 40.5t13.5 23
q2 3 5.5 6t8.5 3q6 0 9.5 -3.5t6.5 -8.5t11.5 -23t18 -39t16.5 -38.5t7 -21.5q0 -6 -6 -10.5t-12 -4.5z" />
    <glyph glyph-name="udieresis" unicode="&#xfc;" horiz-adv-x="335" 
d="M198 554q7 0 14 -1.5t14 -3.5q17 -3 25.5 -9t8.5 -26q0 -9 -0.5 -18.5t-1.5 -18.5q-2 -51 -3.5 -101.5t-1.5 -101.5v-64.5t2 -64.5q2 -26 6 -51t4 -51q0 -14 -8 -26t-23 -12t-23 8.5t-11.5 21.5t-4.5 26.5t-2 24.5q-4 -15 -10.5 -30t-17 -27t-24 -19.5t-30.5 -7.5
q-43 0 -64 36q-14 24 -23 58.5t-13.5 72t-6 74t-1.5 64.5q0 29 1 56.5t3 56.5q2 27 1.5 59t4.5 58q2 8 5.5 14.5t13.5 6.5q11 0 18.5 -8t7.5 -19q0 -14 -1 -26.5t-2 -26.5q-3 -43 -3.5 -86t-0.5 -86q0 -21 0.5 -59t5 -77t14.5 -72t29 -45q1 -1 4 -2t5 -1q13 0 22.5 13.5
t15.5 35t10 47t5.5 50t2.5 44t1 29.5q2 35 4.5 68.5t2.5 68.5v99q0 6 -1 12t-1 12q0 12 8 18.5t19 6.5zM209 637q0 -14 -9 -23.5t-23 -9.5q-12 0 -18.5 10t-6.5 21q0 14 7.5 22t21.5 8q11 0 19.5 -8.5t8.5 -19.5zM111 637q0 -14 -9 -23.5t-23 -9.5q-12 0 -18.5 10t-6.5 21
q0 14 7.5 22t21.5 8q11 0 19.5 -8.5t8.5 -19.5z" />
    <glyph glyph-name="yacute" unicode="&#xfd;" horiz-adv-x="324" 
d="M122 105q5 31 9.5 61t9.5 61q2 17 4.5 34t6.5 34q5 23 7 46.5t6 46.5l18 108l4 20t3 20l8 7q11 -2 28 -3.5t27 -6.5q11 -6 11 -22q0 -12 -3.5 -24t-5.5 -23q-5 -24 -8.5 -48t-8.5 -48l-107 -602q-2 -9 -6.5 -15t-14.5 -6q-7 0 -15.5 0.5t-16 2.5t-13 7.5t-5.5 14.5
q0 17 4.5 35t9.5 35q2 8 6.5 28t9 42t7.5 41.5t3 27.5q0 30 -6 59.5t-14 58.5q-2 8 -3 16t-3 16q-5 20 -9.5 41t-9.5 41q-11 51 -19.5 103t-19.5 103q-5 23 -9.5 48t-4.5 49q0 8 5.5 16t14.5 8q11 0 17 -8.5t7 -18.5q11 -103 32.5 -203.5t43.5 -202.5zM176 698q7 0 13 -5.5
t6 -12.5q0 -4 -9 -17.5t-20 -29.5t-21.5 -30.5t-14.5 -19.5q-3 -4 -7 -7t-9 -3q-8 0 -13.5 6t-5.5 14q0 4 6 13.5t13.5 20t15.5 20t11 14.5q4 5 7 11.5t8 11.5q4 5 9 9.5t11 4.5z" />
    <glyph glyph-name="thorn" unicode="&#xfe;" horiz-adv-x="221" 
d="M63 33q21 6 36 34t24 62.5t13.5 69t4.5 53.5q0 14 -1 29.5t-4.5 30t-10.5 28t-19 22.5q-6 4 -11 4t-10 -3t-8 -6q-7 -7 -8.5 -19.5t-1.5 -21.5q0 -39 -0.5 -78.5t-1.5 -78.5q0 -28 -1.5 -56t-1.5 -56q0 -9 1 -14zM90 408q15 0 27.5 -7t23.5 -18q23 -23 30 -54t7 -63
q0 -26 -5 -68t-16 -84t-30.5 -75.5t-47.5 -42.5q-5 -2 -15 -4q1 -33 0.5 -66.5t-0.5 -66.5q0 -9 0.5 -18t0.5 -19q0 -19 -6.5 -35t-29.5 -16q-14 0 -20 8t-6 21q0 12 1 23.5t1 23.5q0 19 -0.5 38t-0.5 38q0 45 1 89t1 89q0 16 -0.5 31.5t-0.5 31.5q0 59 1.5 117t1.5 117
q0 57 0.5 114t0.5 114q0 14 13 18.5t24 4.5q26 0 26 -27v-74v-72.5t-2 -72.5q10 5 20 5z" />
    <glyph glyph-name="ydieresis" unicode="&#xff;" horiz-adv-x="324" 
d="M122 105q5 31 9.5 61t9.5 61q2 17 4.5 34t6.5 34q5 23 7 46.5t6 46.5l18 108l4 20t3 20l8 7q11 -2 28 -3.5t27 -6.5q11 -6 11 -22q0 -12 -3.5 -24t-5.5 -23q-5 -24 -8.5 -48t-8.5 -48l-107 -602q-2 -9 -6.5 -15t-14.5 -6q-7 0 -15.5 0.5t-16 2.5t-13 7.5t-5.5 14.5
q0 17 4.5 35t9.5 35q2 8 6.5 28t9 42t7.5 41.5t3 27.5q0 30 -6 59.5t-14 58.5q-2 8 -3 16t-3 16q-5 20 -9.5 41t-9.5 41q-11 51 -19.5 103t-19.5 103q-5 23 -9.5 48t-4.5 49q0 8 5.5 16t14.5 8q11 0 17 -8.5t7 -18.5q11 -103 32.5 -203.5t43.5 -202.5zM202 621
q0 -14 -9 -23.5t-23 -9.5q-12 0 -18.5 10t-6.5 21q0 14 7.5 22t21.5 8q11 0 19.5 -8.5t8.5 -19.5zM104 621q0 -14 -9 -23.5t-23 -9.5q-12 0 -18.5 10t-6.5 21q0 14 7.5 22t21.5 8q11 0 19.5 -8.5t8.5 -19.5z" />
    <glyph glyph-name="Amacron" unicode="&#x100;" horiz-adv-x="318" 
d="M3 21q0 12 1.5 24.5t3.5 24.5q5 38 9 75t8 75q11 100 21 197.5t21 197.5q4 30 7 60.5t7 60.5q3 21 14.5 23t28.5 2q13 0 28 -1t19 -17q5 -21 8 -43t6 -43q7 -45 12.5 -90.5t12.5 -90.5q5 -32 7.5 -63t6.5 -63q7 -51 13.5 -101.5t13.5 -101.5q3 -20 6 -41t6 -41
q2 -12 4.5 -24t2.5 -25q0 -8 -7 -11t-14 -3q-2 0 -6.5 0.5t-6.5 2.5q-5 4 -5.5 7.5t-2.5 8.5q-7 31 -11 61.5t-8 62.5q-5 40 -10.5 79.5t-10.5 79.5q-18 -1 -35.5 -1h-35.5q-5 -42 -8.5 -83.5t-7.5 -83.5q-2 -14 -2.5 -26.5t-1.5 -26.5t-2.5 -26.5t-1.5 -26.5q0 -3 0.5 -6
t0.5 -7q0 -14 -13.5 -15t-23.5 -1h-15t-18 1.5t-15 5.5t-6 13zM183 343q-8 69 -18 137t-19 137q-7 -69 -12.5 -136.5t-13.5 -136.5q14 0 27.5 -0.5t27.5 -0.5h8zM245 820q0 -12 -7 -15.5t-18 -4.5q-24 -2 -47.5 -1t-47.5 1q-18 0 -36 -0.5t-36 -0.5q-8 0 -13.5 5.5
t-5.5 13.5q0 19 20 19h176q7 0 11 -5t4 -12z" />
    <glyph glyph-name="amacron" unicode="&#x101;" horiz-adv-x="355" 
d="M149 555q28 0 48.5 -11.5t34 -30t21 -42t9.5 -48.5q6 -77 8.5 -153t2.5 -153q0 -24 1 -47.5t1 -47.5q0 -9 -3.5 -13t-9.5 -5.5t-12.5 -2t-12.5 -0.5q-2 0 -4 -0.5t-4 -0.5q-15 0 -19.5 13.5t-5.5 24.5q-30 -37 -78 -37q-10 0 -18.5 0.5t-17.5 5.5q-19 10 -34.5 26
t-23.5 36l-3 6l-3 6q-4 9 -7 15t-5 16q-11 42 -11 83q0 29 8.5 62t26 61.5t43 47.5t59.5 19q31 0 60 -19q0 10 -1 34.5t-5.5 49t-13 43.5t-23.5 19q-19 0 -32 -9.5t-22 -24t-15.5 -31t-12.5 -30.5l-9 -4q-20 5 -20 22q0 2 0.5 4t0.5 4q3 19 11.5 38.5t21.5 36t30.5 27
t38.5 10.5zM203 303q0 5 -0.5 7.5t-5.5 5.5q-11 8 -30.5 15.5t-33.5 7.5q-15 0 -27.5 -8t-21.5 -20t-16 -26t-12 -26q-6 -14 -8 -29.5t-2 -31.5q0 -38 7 -71t36 -60q5 -5 15.5 -13t17.5 -8q18 0 33 11t25.5 27.5t16.5 35.5t6 35v148zM261 609q0 -12 -7 -15.5t-18 -4.5
q-24 -2 -47.5 -1t-47.5 1q-18 0 -36 -0.5t-36 -0.5q-8 0 -13.5 5.5t-5.5 13.5q0 19 20 19h176q7 0 11 -5t4 -12z" />
    <glyph glyph-name="Abreve" unicode="&#x102;" horiz-adv-x="318" 
d="M3 21q0 12 1.5 24.5t3.5 24.5q5 38 9 75t8 75q11 100 21 197.5t21 197.5q4 30 7 60.5t7 60.5q3 21 14.5 23t28.5 2q13 0 28 -1t19 -17q5 -21 8 -43t6 -43q7 -45 12.5 -90.5t12.5 -90.5q5 -32 7.5 -63t6.5 -63q7 -51 13.5 -101.5t13.5 -101.5q3 -20 6 -41t6 -41
q2 -12 4.5 -24t2.5 -25q0 -8 -7 -11t-14 -3q-2 0 -6.5 0.5t-6.5 2.5q-5 4 -5.5 7.5t-2.5 8.5q-7 31 -11 61.5t-8 62.5q-5 40 -10.5 79.5t-10.5 79.5q-18 -1 -35.5 -1h-35.5q-5 -42 -8.5 -83.5t-7.5 -83.5q-2 -14 -2.5 -26.5t-1.5 -26.5t-2.5 -26.5t-1.5 -26.5q0 -3 0.5 -6
t0.5 -7q0 -14 -13.5 -15t-23.5 -1h-15t-18 1.5t-15 5.5t-6 13zM183 343q-8 69 -18 137t-19 137q-7 -69 -12.5 -136.5t-13.5 -136.5q14 0 27.5 -0.5t27.5 -0.5h8zM127 791q-24 0 -40 9t-25.5 23.5t-13.5 33.5t-4 40q0 10 3.5 21t15.5 11q20 0 20 -21v-28t4 -25.5t13.5 -18.5
t29.5 -7q13 0 22.5 6.5t15.5 17t8.5 23t2.5 23.5v10t1 11.5t4 9.5t9 4q13 0 18.5 -8t5.5 -20q0 -10 -1 -20.5t-3 -20.5q-8 -29 -31 -51.5t-55 -22.5z" />
    <glyph glyph-name="abreve" unicode="&#x103;" horiz-adv-x="355" 
d="M149 555q28 0 48.5 -11.5t34 -30t21 -42t9.5 -48.5q6 -77 8.5 -153t2.5 -153q0 -24 1 -47.5t1 -47.5q0 -9 -3.5 -13t-9.5 -5.5t-12.5 -2t-12.5 -0.5q-2 0 -4 -0.5t-4 -0.5q-15 0 -19.5 13.5t-5.5 24.5q-30 -37 -78 -37q-10 0 -18.5 0.5t-17.5 5.5q-19 10 -34.5 26
t-23.5 36q-1 2 -3 5.5t-3 5.5q-4 9 -7 15.5t-5 16.5q-11 42 -11 83q0 29 8.5 62t26 61.5t43 47.5t59.5 19q31 0 60 -19q0 10 -1 34.5t-5.5 49t-13 43.5t-23.5 19q-19 0 -32 -9.5t-22 -24t-15.5 -31t-12.5 -30.5l-9 -4q-20 5 -20 22q0 2 0.5 4t0.5 4q3 19 11.5 38.5t21.5 36
t30.5 27t38.5 10.5zM203 303q0 5 -0.5 7.5t-5.5 5.5q-11 8 -30.5 15.5t-33.5 7.5q-15 0 -27.5 -8t-21.5 -20t-16 -26t-12 -26q-6 -14 -8 -29.5t-2 -31.5q0 -38 7 -71t36 -60q5 -5 15.5 -13t17.5 -8q18 0 33 11t25.5 27.5t16.5 35.5t6 35v148zM152 593q-24 0 -40 9
t-25.5 23.5t-13.5 33.5t-4 40q0 10 3.5 21t15.5 11q20 0 20 -21v-28t4 -25.5t13.5 -18.5t29.5 -7q13 0 22.5 6.5t15.5 17t8.5 23t2.5 23.5v10t1 11.5t4 9.5t9 4q13 0 18.5 -8t5.5 -20q0 -10 -1 -20.5t-3 -20.5q-8 -29 -31 -51.5t-55 -22.5z" />
    <glyph glyph-name="Aogonek" unicode="&#x104;" horiz-adv-x="329" 
d="M192 -56q0 22 9.5 41t26.5 33q-10 30 -13 64t-6 66q-4 40 -10.5 79.5t-11.5 79.5q-18 -1 -36 -1h-36q-5 -42 -8 -83.5t-7 -83.5q-2 -26 -5 -53t-3 -54q0 -21 -5 -25t-28 -4h-15.5t-19.5 1.5t-17 5.5t-7 12q0 6 1 12l2 12q5 45 10 88t10 88q11 100 22 198.5t21 198.5
q3 31 6.5 61.5t7.5 60.5q2 17 10.5 21.5t24.5 4.5q7 0 16 0.5t17 -1t14.5 -5.5t8.5 -13q4 -14 7 -32.5t5.5 -38.5t4.5 -39t4 -34q4 -31 8 -61.5t9 -61.5q5 -32 8 -64t7 -64q6 -51 13 -102l14 -102q2 -20 5 -41t6 -41q2 -14 5 -27t3 -27q0 -9 -6.5 -13.5t-14 -11t-14 -17
t-6.5 -30.5q0 -15 7 -25t23 -10q8 0 15.5 3t15.5 3q15 0 15 -17q0 -8 -5.5 -12.5t-13.5 -7t-16 -3.5t-14 -1q-32 0 -48 22t-16 51zM182 346q-8 69 -17.5 138t-19.5 138q-7 -69 -12.5 -137.5t-13.5 -137.5q14 0 27.5 -0.5t27.5 -0.5h8z" />
    <glyph glyph-name="aogonek" unicode="&#x105;" horiz-adv-x="344" 
d="M199 -66q0 18 6.5 35.5t19.5 30.5q-14 2 -18 13t-5 23q-31 -36 -76 -36q-10 0 -18.5 0.5t-17.5 5.5q-23 12 -39.5 33t-27 46.5t-15 53t-4.5 51.5q0 8 0.5 16.5t1.5 16.5q2 25 11 48t22 44q17 29 41 47t59 18q17 0 31.5 -5t28.5 -14q0 10 -1 33.5t-5.5 48t-12.5 43
t-22 18.5q-19 0 -31.5 -9.5t-21.5 -23.5t-16 -30t-13 -30l-9 -4q-20 5 -20 22q0 2 0.5 4t0.5 4q3 18 11.5 37.5t21.5 35.5t30 26.5t38 10.5q27 0 47 -11.5t33.5 -29.5t21 -41.5t9.5 -47.5q6 -76 8.5 -151t2.5 -151v-34t1 -34q0 -8 1 -16.5t1 -16.5q0 -17 -6 -24t-12.5 -12.5
t-12.5 -14.5t-6 -30q0 -15 7 -26.5t24 -11.5q5 0 8.5 1t8.5 1q8 0 14 -5t6 -13q0 -6 -4.5 -10t-10.5 -6.5t-13 -3t-12 -0.5q-32 0 -49 22.5t-17 52.5zM118 45q19 0 35 10.5t26.5 27t16.5 36t6 36.5v143q0 9 -6 14q-5 4 -13 8t-17 7t-18 5t-15 2q-15 0 -27 -8t-22 -19.5
t-17 -25.5t-11 -26q-5 -14 -7 -29.5t-2 -31.5q0 -24 2.5 -46t10 -40.5t21.5 -34.5t37 -28z" />
    <glyph glyph-name="Cacute" unicode="&#x106;" horiz-adv-x="334" 
d="M168 759q46 0 72 -28t26 -73q0 -6 -1 -14.5t-3.5 -17t-7 -14.5t-12.5 -6q-13 0 -16.5 6t-3.5 18q0 7 0.5 20.5t-1 26.5t-7 23t-16.5 10q-12 0 -21 -6t-16 -15.5t-12 -20t-9 -19.5q-3 -7 -7 -14t-7 -14q-8 -17 -15 -44t-12 -56.5t-7.5 -58t-2.5 -47.5q0 -21 1 -52
t3.5 -66.5t7.5 -73.5t12.5 -71.5t18.5 -60t27 -39.5q9 -7 17 -7q12 0 20 11t14 24.5t12 24.5t15 11q11 0 16 -8.5t5 -17.5q0 -17 -7 -33.5t-19 -29t-27.5 -20.5t-32.5 -8q-8 0 -14.5 2t-13.5 4q-17 5 -32.5 10.5t-29.5 18.5q-38 33 -50 80q-17 66 -23 132t-6 133
q0 38 4.5 75.5t9.5 75.5q4 24 7.5 47.5t11.5 46.5q7 22 18.5 46t28 44t37.5 32.5t48 12.5zM210 919q7 0 12.5 -5t5.5 -12q0 -4 -8.5 -18t-19.5 -30t-21.5 -30t-14.5 -19q-3 -4 -7 -7.5t-9 -3.5q-8 0 -13.5 6t-5.5 14q0 4 6 14t13.5 20.5t15.5 20.5t11 14q5 5 8 11t7 12
q3 5 8.5 9t11.5 4z" />
    <glyph glyph-name="cacute" unicode="&#x107;" horiz-adv-x="268" 
d="M171 413q-11 0 -13.5 10.5t-2.5 18.5q0 22 -1 37.5t-18 32.5q-4 -1 -9 -6q-17 -17 -27 -39t-15.5 -46t-7.5 -49t-2 -47q0 -51 2 -101t7 -101q1 -9 4 -22.5t9 -26.5t14.5 -22t20.5 -9q15 0 23 13.5t13 30.5t9 33t10 22q5 5 12 5t11 -6t4 -12q0 -7 -1.5 -13.5t-3.5 -13.5
q-5 -20 -10 -38t-15 -32.5t-25 -23t-39 -8.5q-38 0 -60 22.5t-33 55t-15 68.5t-5 64l-2 44t-1 44q0 17 1.5 43t5.5 54.5t11 57.5t19 52t29 37.5t41 14.5q26 0 42 -10t24.5 -26t11.5 -37t3 -42q0 -11 -3.5 -20t-17.5 -9zM166 722q7 0 13 -5.5t6 -12.5q0 -4 -9 -17.5
t-20 -29.5t-21.5 -30.5t-14.5 -19.5q-3 -4 -7 -7t-9 -3q-8 0 -13.5 5.5t-5.5 13.5q0 5 6 14.5t13.5 20t15.5 20t11 14.5q4 5 7 11.5t8 11.5q4 5 9 9.5t11 4.5z" />
    <glyph glyph-name="Ccircumflex" unicode="&#x108;" horiz-adv-x="334" 
d="M168 759q46 0 72 -28t26 -73q0 -6 -1 -14.5t-3.5 -17t-7 -14.5t-12.5 -6q-13 0 -16.5 6t-3.5 18q0 7 0.5 20.5t-1 26.5t-7 23t-16.5 10q-12 0 -21 -6t-16 -15.5t-12 -20t-9 -19.5q-3 -7 -7 -14t-7 -14q-8 -17 -15 -44t-12 -56.5t-7.5 -58t-2.5 -47.5q0 -21 1 -52
t3.5 -66.5t7.5 -73.5t12.5 -71.5t18.5 -60t27 -39.5q9 -7 17 -7q12 0 20 11t14 24.5t12 24.5t15 11q11 0 16 -8.5t5 -17.5q0 -17 -7 -33.5t-19 -29t-27.5 -20.5t-32.5 -8q-8 0 -14.5 2t-13.5 4q-17 5 -32.5 10.5t-29.5 18.5q-38 33 -50 80q-17 66 -23 132t-6 133
q0 38 4.5 75.5t9.5 75.5q4 24 7.5 47.5t11.5 46.5q7 22 18.5 46t28 44t37.5 32.5t48 12.5zM208 792q-6 0 -11 7q-3 4 -8 16t-10.5 26t-11 27.5t-8.5 20.5q-11 -23 -22 -45l-22 -44q-2 -3 -3.5 -5.5t-6.5 -2.5t-14 3.5t-9 10.5q0 4 8.5 22.5t19 39.5t20.5 40t14 24q3 4 6 6.5
t8 2.5t9 -3.5t6 -8.5l12 -24t18 -38.5t16 -38t7 -21.5q0 -6 -6 -10.5t-12 -4.5z" />
    <glyph glyph-name="ccircumflex" unicode="&#x109;" horiz-adv-x="268" 
d="M171 413q-11 0 -13.5 10.5t-2.5 18.5q0 22 -1 37.5t-18 32.5q-4 -1 -9 -6q-17 -17 -27 -39t-15.5 -46t-7.5 -49t-2 -47q0 -51 2 -101t7 -101q1 -9 4 -22.5t9 -26.5t14.5 -22t20.5 -9q15 0 23 13.5t13 30.5t9 33t10 22q5 5 12 5t11 -6t4 -12q0 -7 -1.5 -13.5t-3.5 -13.5
q-5 -20 -10 -38t-15 -32.5t-25 -23t-39 -8.5q-38 0 -60 22.5t-33 55t-15 68.5t-5 64l-2 44t-1 44q0 17 1.5 43t5.5 54.5t11 57.5t19 52t29 37.5t41 14.5q26 0 42 -10t24.5 -26t11.5 -37t3 -42q0 -11 -3.5 -20t-17.5 -9zM163 585q-5 0 -7 2t-4 5q-11 17 -20.5 43.5
t-17.5 46.5q-11 -23 -22 -44.5t-22 -44.5q-2 -3 -3.5 -6t-6.5 -3t-14.5 4t-9.5 10q0 4 8.5 23t19 40.5t21 40.5t13.5 23q2 3 5.5 6t8.5 3q6 0 9.5 -3.5t6.5 -8.5t11.5 -23t18 -39t16.5 -38.5t7 -21.5q0 -6 -6 -10.5t-12 -4.5z" />
    <glyph glyph-name="Cdotaccent" unicode="&#x10a;" horiz-adv-x="334" 
d="M168 759q46 0 72 -28t26 -73q0 -6 -1 -14.5t-3.5 -17t-7 -14.5t-12.5 -6q-13 0 -16.5 6t-3.5 18q0 7 0.5 20.5t-1 26.5t-7 23t-16.5 10q-12 0 -21 -6t-16 -15.5t-12 -20t-9 -19.5q-3 -7 -7 -14t-7 -14q-8 -17 -15 -44t-12 -56.5t-7.5 -58t-2.5 -47.5q0 -21 1 -52
t3.5 -66.5t7.5 -73.5t12.5 -71.5t18.5 -60t27 -39.5q9 -7 17 -7q12 0 20 11t14 24.5t12 24.5t15 11q11 0 16 -8.5t5 -17.5q0 -17 -7 -33.5t-19 -29t-27.5 -20.5t-32.5 -8q-8 0 -14.5 2t-13.5 4q-17 5 -32.5 10.5t-29.5 18.5q-38 33 -50 80q-17 66 -23 132t-6 133
q0 38 4.5 75.5t9.5 75.5q4 24 7.5 47.5t11.5 46.5q7 22 18.5 46t28 44t37.5 32.5t48 12.5zM204 834q0 -14 -9 -23.5t-23 -9.5q-12 0 -18.5 10t-6.5 21q0 14 7.5 22t21.5 8q11 0 19.5 -8.5t8.5 -19.5z" />
    <glyph glyph-name="cdotaccent" unicode="&#x10b;" horiz-adv-x="268" 
d="M171 413q-11 0 -13.5 10.5t-2.5 18.5q0 22 -1 37.5t-18 32.5q-4 -1 -9 -6q-17 -17 -27 -39t-15.5 -46t-7.5 -49t-2 -47q0 -51 2 -101t7 -101q1 -9 4 -22.5t9 -26.5t14.5 -22t20.5 -9q15 0 23 13.5t13 30.5t9 33t10 22q5 5 12 5t11 -6t4 -12q0 -7 -1.5 -13.5t-3.5 -13.5
q-5 -20 -10 -38t-15 -32.5t-25 -23t-39 -8.5q-38 0 -60 22.5t-33 55t-15 68.5t-5 64l-2 44t-1 44q0 17 1.5 43t5.5 54.5t11 57.5t19 52t29 37.5t41 14.5q26 0 42 -10t24.5 -26t11.5 -37t3 -42q0 -11 -3.5 -20t-17.5 -9zM136 637q0 -14 -9 -23.5t-23 -9.5q-12 0 -18.5 10
t-6.5 21q0 14 7.5 22t21.5 8q11 0 19.5 -8.5t8.5 -19.5z" />
    <glyph glyph-name="Ccaron" unicode="&#x10c;" horiz-adv-x="334" 
d="M168 759q46 0 72 -28t26 -73q0 -6 -1 -14.5t-3.5 -17t-7 -14.5t-12.5 -6q-13 0 -16.5 6.5t-3.5 17.5q0 7 0.5 20.5t-1 26.5t-7 23t-16.5 10q-12 0 -21 -6t-16 -15.5t-12 -20t-9 -19.5q-3 -7 -7 -14t-7 -14q-8 -17 -15 -44t-12 -56.5t-7.5 -58t-2.5 -47.5q0 -20 1 -51
t3.5 -67t7.5 -74t12.5 -71.5t18.5 -60t27 -39.5q9 -7 17 -7q12 0 20 11t14 24.5t12 24.5t15 11q11 0 16 -8.5t5 -17.5q0 -17 -7 -33.5t-19 -29t-27.5 -20.5t-32.5 -8q-8 0 -14.5 2t-13.5 4q-17 5 -32.5 10.5t-29.5 18.5q-38 33 -50 80q-17 65 -23 132t-6 133q0 38 4.5 75.5
t9.5 75.5q4 24 7.5 47.5t11.5 46.5q7 22 18.5 46t28 44t37.5 32.5t48 12.5zM164 790q-6 0 -9.5 3.5t-5.5 8.5q-5 9 -14 26t-17.5 36.5t-15 37t-6.5 26.5q0 3 1 4q2 3 7.5 4.5t8.5 1.5q5 0 7 -1.5t4 -4.5q3 -4 8.5 -16.5t11 -27t10.5 -28t8 -20.5q5 10 9.5 20t9.5 20
q6 11 12 22.5t11 23.5l4 8t7 4t14.5 -3t9.5 -10q0 -4 -8.5 -22.5t-19 -40.5t-20.5 -40.5t-13 -22.5l-6 -6t-8 -3z" />
    <glyph glyph-name="ccaron" unicode="&#x10d;" horiz-adv-x="268" 
d="M171 413q-11 0 -13.5 10.5t-2.5 18.5q0 22 -1 37.5t-18 32.5q-4 -1 -9 -6q-17 -17 -27 -39t-15.5 -46t-7.5 -49t-2 -47q0 -51 2 -101t7 -101q1 -9 4 -22.5t9 -26.5t14.5 -22t20.5 -9q15 0 23 13.5t13 30.5t9 33t10 22q5 5 12 5t11 -6t4 -12q0 -7 -1.5 -13.5t-3.5 -13.5
q-5 -20 -10 -38t-15 -32.5t-25 -23t-39 -8.5q-38 0 -60 22.5t-33 55t-15 68.5t-5 64l-2 44t-1 44q0 17 1.5 43t5.5 54.5t11 57.5t19 52t29 37.5t41 14.5q26 0 42 -10t24.5 -26t11.5 -37t3 -42q0 -11 -3.5 -20t-17.5 -9zM107 591q-6 0 -9.5 3.5t-5.5 8.5q-5 9 -14 26
t-17.5 36.5t-15 37t-6.5 26.5q0 3 1 4q2 3 7.5 4.5t8.5 1.5q5 0 7 -1.5t4 -4.5q3 -4 8.5 -16.5t11 -27t10.5 -28t8 -20.5q5 10 9.5 20t9.5 20q6 11 12 22.5t11 23.5l4 8t7 4t14.5 -3t9.5 -10q0 -4 -8.5 -22.5t-19 -40.5t-20.5 -40.5t-13 -22.5l-6 -6t-8 -3z" />
    <glyph glyph-name="Dcaron" unicode="&#x10e;" horiz-adv-x="323" 
d="M51 761q18 0 34 -11.5t30 -22.5q27 -23 52.5 -47.5t42.5 -56.5q17 -33 29.5 -62.5t20 -59.5t11 -62t3.5 -69q0 -55 -7 -103t-27 -99q-15 -41 -35 -79.5t-58 -62.5q-22 -14 -39.5 -19.5t-43.5 -5.5q-13 0 -28 6t-20 19q-3 7 -5.5 42t-4 84.5t-2.5 107t-1.5 110t-1 92.5
t-0.5 56v46.5t1 66t3 64.5t5 41q4 13 16 19t25 6zM77 678q0 -39 2.5 -78.5t4.5 -78.5q6 -188 6 -376q0 -8 -0.5 -15t-0.5 -15q0 -14 1 -26.5t2 -26.5q22 3 40 20t32 39.5t23.5 47t15.5 43.5q18 55 21 115q1 12 1 23.5v23.5q0 65 -16 125t-51 115q-8 12 -18 23l-20 22
q-10 10 -20.5 17.5t-21.5 15.5q-1 -5 -1 -14zM77 788q-6 0 -9.5 3.5t-5.5 8.5q-5 9 -14 26t-17.5 36.5t-15 37t-6.5 26.5q0 3 1 4q2 3 7.5 4.5t8.5 1.5q5 0 7 -1.5t4 -4.5q3 -4 8.5 -16.5t11 -27t10.5 -28t8 -20.5q5 10 9.5 20t9.5 20q6 11 12 22.5t11 23.5l4 8t7 4t14.5 -3
t9.5 -10q0 -4 -8.5 -22.5t-19 -40.5t-20.5 -40.5t-13 -22.5l-6 -6t-8 -3z" />
    <glyph glyph-name="dcaron" unicode="&#x10f;" horiz-adv-x="370" 
d="M256 798q0 -29 -1 -58t-1 -58v-107q0 -48 1 -95.5t1 -95.5q0 -34 -1 -68t-1 -68q0 -63 3 -124q1 -24 4.5 -47.5t3.5 -47.5q0 -11 -7.5 -18.5t-18.5 -7.5q-12 0 -18.5 5.5t-10.5 13.5t-6 17.5t-4 18.5q-11 -20 -27.5 -38.5t-41.5 -18.5h-9q-30 0 -51 19.5t-35 47.5
t-21 59.5t-9 54.5q-3 31 -3 64q0 48 8.5 95.5t28.5 92.5q9 20 19 39.5t24 35.5t32.5 25.5t43.5 9.5q6 0 12 -0.5t12 -1.5v56t1 56q1 26 2 50.5t1 50.5q0 6 -0.5 16t0 19.5t4 17t12.5 7.5q8 0 15 -0.5t15 -0.5t15.5 -2.5t7.5 -13.5zM189 141q0 19 -1.5 38t-2.5 38
q-1 29 -1 57t-2 57q-1 5 -1 11v11q0 19 1 37.5t1 37.5v71q-5 2 -11 3t-11 1q-16 0 -28 -9t-21 -21q-17 -22 -30 -50.5t-21 -60t-12 -63t-4 -58.5q0 -21 1.5 -46t7 -49.5t15.5 -46.5t27 -37q5 -5 12 -10.5t15 -5.5q9 0 16 6.5t12 12.5q7 9 12.5 15.5t9.5 13.5t7 15.5t6 19.5
q0 1 1.5 6t1.5 6zM323 736q-7 -7 -15 -7q-11 0 -19 9.5t-8 20.5q0 15 12.5 29.5t28.5 14.5q9 0 14.5 -5t9 -12.5t5 -15.5t1.5 -15q0 -23 -9 -48.5t-16 -47.5q-2 -8 -3.5 -15.5t-3.5 -15.5q-1 -5 -5.5 -8.5t-9.5 -3.5t-8.5 5.5t-3.5 9.5q0 7 4 21t9 30t10 31t7 23z" />
    <glyph glyph-name="Dcroat" unicode="&#x110;" horiz-adv-x="383" 
d="M89 757q17 0 34 -11.5t30 -22.5l24 -20t23 -21q30 -31 51.5 -68.5t35 -78.5t19.5 -84.5t6 -85.5q0 -54 -7 -102.5t-27 -99.5q-9 -24 -18.5 -46.5t-22 -42t-29.5 -35.5t-42 -28q-16 -8 -29 -11t-31 -3q-14 0 -29 5t-22 19q-3 7 -5 18q-1 8 -0.5 17t-0.5 17
q-5 75 -5.5 150.5t-2.5 150.5q-5 -1 -9.5 -1.5t-9.5 -0.5q-11 0 -16.5 7.5t-5.5 17.5q0 9 4 13t10 5.5t13 1t13 -0.5q-1 66 -0.5 132.5t3.5 132.5q1 12 2 25t4 25q3 13 9 16t17 6q4 1 7 2.5t7 1.5zM126 373q0 -58 1.5 -116t1.5 -116q0 -8 -0.5 -15.5t-0.5 -15.5
q0 -14 1 -26.5t1 -26.5q23 3 41 20t31.5 40t23 47.5t15.5 43.5q14 38 18.5 78.5t4.5 81.5q0 78 -23.5 151t-77.5 130q-10 11 -21.5 21.5t-25.5 16.5q0 -4 -0.5 -7.5t-0.5 -7.5q0 -20 1.5 -39t2.5 -39l6 -177q14 1 29 2t29 1q11 0 16.5 -7t5.5 -17q0 -19 -18 -19l-61 -2v-2z
" />
    <glyph glyph-name="dcroat" unicode="&#x111;" horiz-adv-x="346" 
d="M252 629q14 0 24 -1.5t10 -20.5q0 -7 -2 -14.5t-11 -7.5q-5 0 -10.5 0.5t-10.5 0.5q-1 -54 -0.5 -107.5t-0.5 -107.5q-1 -38 -2.5 -76.5t-1.5 -76.5q0 -25 0.5 -50t1.5 -50q1 -20 3 -41t4 -41q0 -2 0.5 -5t0.5 -5q0 -12 -7.5 -19t-19.5 -7q-11 0 -17.5 5t-10.5 13
t-6 17.5t-4 17.5q-11 -20 -27 -38t-41 -18q-32 0 -53.5 18.5t-35.5 45.5t-21 58t-9 56q-2 15 -2 30v30q0 47 9 93t28 89q9 20 19 40t23.5 35.5t31.5 25.5t44 10q6 0 12 -0.5t12 -1.5v31t1 31h-33h-55q-8 0 -15 4t-7 14q0 12 3.5 19.5t17.5 7.5q19 0 37 -1t37 -1h16
q0 32 2 64.5t2 64.5q0 9 1 20.5t15 11.5q6 0 11.5 -1t11.5 -1q10 0 19.5 -1t9.5 -15q0 -36 -1.5 -72.5t-2.5 -72.5zM118 42q9 0 15.5 6.5t11.5 12.5q18 21 27.5 38.5t9.5 46.5q0 49 -2 97.5t-2 97.5q0 35 1 71t2 71q-9 4 -21 4q-21 0 -38.5 -18.5t-31 -44t-22.5 -52.5
t-13 -44q-6 -24 -8.5 -48t-2.5 -49q0 -21 1.5 -45t6.5 -47.5t14.5 -44.5t25.5 -37q5 -5 11.5 -10t14.5 -5z" />
    <glyph glyph-name="Emacron" unicode="&#x112;" 
d="M217 735q0 -5 -1 -9.5t-4 -7.5q-5 -5 -11 -5q-28 0 -56 -0.5t-56 -0.5q4 -77 3 -153.5t-1 -152.5q9 -1 17.5 -1h17.5q11 0 22 1t22 1t17.5 -5.5t6.5 -16.5q0 -16 -17 -19q-20 -5 -42.5 -4.5t-43.5 0.5v-315h90q8 0 19.5 0.5t18.5 -3.5l3 -6q0 -5 0.5 -9.5t0.5 -9.5
q0 -19 -17 -19h-187q-6 0 -10 1.5t-6 7.5q-2 26 -2 50.5v50.5q0 48 1 96t1 96q0 68 0.5 134.5t0.5 134.5q0 39 -1.5 78.5t-1.5 78.5q0 14 9 22.5t23 8.5q31 0 61 0.5t61 0.5q11 0 22 -0.5t22 -0.5q5 0 11 -1t6 -8q0 -4 0.5 -7.5t0.5 -7.5zM222 825q0 -12 -7 -15.5t-18 -4.5
q-24 -2 -47.5 -1t-47.5 1q-18 0 -36 -0.5t-36 -0.5q-8 0 -13.5 5.5t-5.5 13.5q0 19 20 19h176q7 0 11 -5t4 -12z" />
    <glyph glyph-name="emacron" unicode="&#x113;" horiz-adv-x="287" 
d="M86 361q-1 -6 -2.5 -12.5t-2.5 -13.5q-2 -23 -3.5 -46.5t-1.5 -46.5q0 -17 2.5 -49t11 -64t23.5 -55.5t39 -23.5q18 0 27 10t15 22.5t12.5 22.5t20.5 10q17 0 17 -19q0 -6 -3 -16t-7.5 -20.5t-10 -19.5t-9.5 -13q-16 -16 -33 -20.5t-38 -4.5h-19q-32 0 -54 19t-36.5 47
t-22 60t-8.5 58q-1 8 -1 14.5v14.5q0 19 0.5 37.5t1.5 37.5q1 31 7.5 76t22.5 87t43 72t68 30q26 0 43.5 -12t28.5 -30.5t15.5 -41t4.5 -44.5q0 -24 -5 -36t-15.5 -17t-26 -5.5t-35.5 -1.5q-17 -1 -34.5 -2.5t-34.5 -3.5zM194 410q3 12 3 24q0 10 -2 24t-7.5 26.5t-14.5 21
t-22 8.5q-5 0 -7 -1q-8 -2 -17 -16.5t-16.5 -32.5t-12.5 -35t-6 -25q28 0 55 3q7 1 13.5 0.5t13.5 0.5q4 1 10.5 2t9.5 0zM248 610q0 -12 -7 -15.5t-18 -4.5q-23 -1 -47 -0.5t-48 0.5q-18 0 -36 -0.5t-36 -0.5q-8 0 -13.5 5.5t-5.5 13.5q0 19 20 19h176q7 0 11 -5t4 -12z
" />
    <glyph glyph-name="Ebreve" unicode="&#x114;" 
d="M217 735q0 -5 -1 -9.5t-4 -7.5q-5 -5 -11 -5q-28 0 -56 -0.5t-56 -0.5q4 -77 3 -153.5t-1 -152.5q9 -1 17.5 -1h17.5q11 0 22 1t22 1t17.5 -5.5t6.5 -16.5q0 -16 -17 -19q-20 -5 -42.5 -4.5t-43.5 0.5v-315h90q8 0 19.5 0.5t18.5 -3.5l3 -6q0 -5 0.5 -9.5t0.5 -9.5
q0 -19 -17 -19h-187q-6 0 -10 1.5t-6 7.5q-2 26 -2 50.5v50.5q0 48 1 96t1 96q0 68 0.5 134.5t0.5 134.5q0 39 -1.5 78.5t-1.5 78.5q0 14 9 22.5t23 8.5q31 0 61 0.5t61 0.5q11 0 22 -0.5t22 -0.5q5 0 11 -1t6 -8q0 -4 0.5 -7.5t0.5 -7.5zM107 801q-24 0 -40 9t-25.5 23.5
t-13.5 33.5t-4 40q0 10 3.5 21t15.5 11q20 0 20 -21v-28t4 -25.5t13.5 -18.5t29.5 -7q13 0 22.5 6.5t15.5 17t8.5 23t2.5 23.5v10t1 11.5t4 9.5t9 4q13 0 18.5 -8t5.5 -20q0 -10 -1 -20.5t-3 -20.5q-8 -29 -31 -51.5t-55 -22.5z" />
    <glyph glyph-name="ebreve" unicode="&#x115;" horiz-adv-x="287" 
d="M86 361q-1 -7 -2.5 -13t-2.5 -13q-3 -23 -4 -46.5t-1 -46.5q0 -17 2.5 -49.5t11 -64t23.5 -55t39 -23.5q18 0 27 10t15 22.5t12.5 22.5t20.5 10q8 0 12.5 -5.5t4.5 -13.5q0 -6 -3 -16t-7.5 -20.5t-10 -19.5t-9.5 -13q-15 -16 -32.5 -20.5t-38.5 -4.5h-19q-36 0 -59.5 23
t-37.5 56t-19.5 70t-5.5 64q0 19 0.5 37.5t1.5 37.5q1 31 8 76t23 87t42.5 72t67.5 30q26 0 43.5 -12t28.5 -30.5t15.5 -41t4.5 -44.5q0 -25 -5.5 -37t-16 -16.5t-26 -5t-34.5 -1.5q-17 -1 -34.5 -2.5t-34.5 -3.5zM194 410q3 12 3 24q0 10 -2 24t-7.5 26.5t-14.5 21t-22 8.5
q-5 0 -7 -1q-9 -3 -17.5 -17t-16 -31.5t-12.5 -34.5t-6 -26q28 0 55 3q7 1 13.5 0.5t13.5 0.5q5 1 8.5 1.5t8.5 0.5h3zM139 588q-24 0 -40 9t-25.5 23.5t-13.5 33.5t-4 40q0 10 3.5 21t15.5 11q20 0 20 -21v-28t4 -25.5t13.5 -18.5t29.5 -7q13 0 22.5 6.5t15.5 17t8.5 23
t2.5 23.5v10t1 11.5t4 9.5t9 4q13 0 18.5 -8t5.5 -20q0 -10 -1 -20.5t-3 -20.5q-8 -29 -31 -51.5t-55 -22.5z" />
    <glyph glyph-name="Edotaccent" unicode="&#x116;" 
d="M217 735q0 -5 -1 -9.5t-4 -7.5q-5 -5 -11 -5q-28 0 -56 -0.5t-56 -0.5q4 -77 3 -153.5t-1 -152.5q9 -1 17.5 -1h17.5q11 0 22 1t22 1t17.5 -5.5t6.5 -16.5q0 -16 -17 -19q-20 -5 -42.5 -4.5t-43.5 0.5v-315h90q8 0 19.5 0.5t18.5 -3.5l3 -6q0 -5 0.5 -9.5t0.5 -9.5
q0 -19 -17 -19h-187q-6 0 -10 1.5t-6 7.5q-2 26 -2 50.5v50.5q0 48 1 96t1 96q0 68 0.5 134.5t0.5 134.5q0 39 -1.5 78.5t-1.5 78.5q0 14 9 22.5t23 8.5q31 0 61 0.5t61 0.5q11 0 22 -0.5t22 -0.5q5 0 11 -1t6 -8q0 -4 0.5 -7.5t0.5 -7.5zM135 832q0 -14 -9 -23.5t-23 -9.5
q-12 0 -18.5 10t-6.5 21q0 14 7.5 22t21.5 8q11 0 19.5 -8.5t8.5 -19.5z" />
    <glyph glyph-name="edotaccent" unicode="&#x117;" horiz-adv-x="287" 
d="M86 361q-1 -7 -2.5 -13t-2.5 -13q-3 -23 -4 -46.5t-1 -46.5q0 -17 2.5 -49.5t11 -64t23.5 -55t39 -23.5q18 0 27 10t15 22.5t12.5 22.5t20.5 10q8 0 12.5 -5.5t4.5 -13.5q0 -6 -3 -16t-7.5 -20.5t-10 -19.5t-9.5 -13q-15 -16 -32.5 -20.5t-38.5 -4.5h-19q-36 0 -59.5 23
t-37.5 56t-19.5 70t-5.5 64q0 19 0.5 37.5t1.5 37.5q1 31 8 76t23 87t42.5 72t67.5 30q26 0 43.5 -12t28.5 -30.5t15.5 -41t4.5 -44.5q0 -25 -5.5 -37t-16 -16.5t-26 -5t-34.5 -1.5q-17 -1 -34.5 -2.5t-34.5 -3.5zM194 410q3 12 3 24q0 10 -2 24t-7.5 26.5t-14.5 21t-22 8.5
q-5 0 -7 -1q-9 -3 -17.5 -17t-16 -31.5t-12.5 -34.5t-6 -26q28 0 55 3q7 1 13.5 0.5t13.5 0.5q5 1 8.5 1.5t8.5 0.5h3zM171 629q0 -14 -9 -23.5t-23 -9.5q-12 0 -18.5 10t-6.5 21q0 14 7.5 22t21.5 8q11 0 19.5 -8.5t8.5 -19.5z" />
    <glyph glyph-name="Eogonek" unicode="&#x118;" horiz-adv-x="298" 
d="M236 -98q6 0 11 -4.5t5 -10.5q0 -9 -5.5 -14.5t-13 -8.5t-16 -4t-15.5 -1q-33 0 -49.5 22t-16.5 53q0 16 6 34.5t17 29.5h-122q-7 0 -15.5 -1t-13.5 4q-2 3 -3 17t-1 30.5v31.5v21q0 118 1.5 235t1.5 235q0 39 -1.5 78.5t-1.5 78.5q0 14 8.5 23t22.5 9q31 0 61.5 0.5
t61.5 0.5q11 0 22 -0.5t22 -0.5q5 0 11.5 -1t6.5 -8v-17t-5 -15q-4 -5 -11 -5q-28 0 -56 -0.5t-56 -0.5q3 -77 2.5 -154t-0.5 -154q9 0 17.5 -0.5t17.5 -0.5q11 0 22 1t22 1t17.5 -5t6.5 -16q0 -16 -17 -19q-20 -5 -42.5 -5h-43.5v-316h101h14t13 -3l3 -7q0 -5 0.5 -9
t0.5 -9q0 -12 -8 -19t-18 -14.5t-18 -18.5t-8 -33q0 -16 6.5 -26.5t24.5 -10.5q8 0 15.5 3.5t15.5 3.5z" />
    <glyph glyph-name="eogonek" unicode="&#x119;" horiz-adv-x="288" 
d="M206 -90q16 0 16 -15q0 -9 -5.5 -14t-13 -8t-16 -4t-14.5 -1q-31 0 -48.5 22t-17.5 51q0 36 22 64q-36 0 -59.5 21.5t-38 53t-20.5 67t-6 63.5q0 20 0.5 39.5t0.5 39.5q0 32 5.5 62.5t13.5 60.5q5 22 14.5 46.5t24.5 45t35 34t47 13.5q25 0 42.5 -11.5t28.5 -30t15.5 -41
t4.5 -43.5q0 -10 -1 -20.5t-6 -19.5q-8 -14 -27.5 -16t-33.5 -3q-20 -1 -40.5 -3t-40.5 -4q-7 -27 -8.5 -56.5t-1.5 -57.5q0 -18 2 -46t8 -55.5t17 -51t29 -33.5q5 -2 9.5 -4t9.5 -2q18 0 27 10t15 22t12 22t19 10q18 0 18 -19q0 -6 -3 -16t-7.5 -20t-9.5 -19t-9 -13
q-5 -6 -13.5 -11t-16.5 -7q-6 -12 -13.5 -18t-13.5 -12t-10 -15t-4 -27q0 -14 7.5 -25t23.5 -11q5 0 10.5 1.5t10.5 2.5q3 2 10 2zM194 408q4 12 4 28q0 10 -2.5 23t-8 24t-14 19t-21.5 8q-11 0 -21 -13.5t-17.5 -31.5t-13 -36t-6.5 -27q26 0 53 3q7 1 14 0.5t14 0.5
q5 1 8.5 1.5t7.5 0.5h3zM175 11v-1v1z" />
    <glyph glyph-name="Ecaron" unicode="&#x11a;" 
d="M217 735q0 -5 -1 -9.5t-4 -7.5q-5 -5 -11 -5q-28 0 -56 -0.5t-56 -0.5q4 -77 3 -153.5t-1 -152.5q9 -1 17.5 -1h17.5q11 0 22 1t22 1t17.5 -5.5t6.5 -16.5q0 -16 -17 -19q-20 -5 -42.5 -4.5t-43.5 0.5v-315h90q8 0 19.5 0.5t18.5 -3.5l3 -6q0 -5 0.5 -9.5t0.5 -9.5
q0 -19 -17 -19h-187q-6 0 -10 1.5t-6 7.5q-2 26 -2 50.5v50.5q0 48 1 96t1 96q0 68 0.5 134.5t0.5 134.5q0 39 -1.5 78.5t-1.5 78.5q0 14 9 22.5t23 8.5q31 0 61 0.5t61 0.5q11 0 22 -0.5t22 -0.5q5 0 11 -1t6 -8q0 -4 0.5 -7.5t0.5 -7.5zM115 799q-6 0 -9.5 3.5t-5.5 8.5
q-5 9 -14 26t-17.5 36.5t-15 37t-6.5 26.5q0 3 1 4q2 3 7.5 4.5t8.5 1.5q5 0 7 -1.5t4 -4.5q3 -4 8.5 -16.5t11 -27t10.5 -28t8 -20.5q5 10 9.5 20t9.5 20q6 11 12 22.5t11 23.5l4 8t7 4t14.5 -3t9.5 -10q0 -4 -8.5 -22.5t-19 -40.5t-20.5 -40.5t-13 -22.5l-6 -6t-8 -3z" />
    <glyph glyph-name="ecaron" unicode="&#x11b;" horiz-adv-x="287" 
d="M86 361q-1 -7 -2.5 -13t-2.5 -13q-3 -23 -4 -46.5t-1 -46.5q0 -17 2.5 -49.5t11 -64t23.5 -55t39 -23.5q18 0 27 10t15 22.5t12.5 22.5t20.5 10q8 0 12.5 -5.5t4.5 -13.5q0 -6 -3 -16t-7.5 -20.5t-10 -19.5t-9.5 -13q-15 -16 -32.5 -20.5t-38.5 -4.5h-19q-36 0 -59.5 23
t-37.5 56t-19.5 70t-5.5 64q0 19 0.5 37.5t1.5 37.5q1 31 8 76t23 87t42.5 72t67.5 30q26 0 43.5 -12t28.5 -30.5t15.5 -41t4.5 -44.5q0 -25 -5.5 -37t-16 -16.5t-26 -5t-34.5 -1.5q-17 -1 -34.5 -2.5t-34.5 -3.5zM194 410q3 12 3 24q0 10 -2 24t-7.5 26.5t-14.5 21t-22 8.5
q-5 0 -7 -1q-9 -3 -17.5 -17t-16 -31.5t-12.5 -34.5t-6 -26q28 0 55 3q7 1 13.5 0.5t13.5 0.5q5 1 8.5 1.5t8.5 0.5h3zM140 587q-6 0 -9.5 3.5t-5.5 8.5q-5 9 -14 26t-17.5 36.5t-15 37t-6.5 26.5q0 3 1 4q2 3 7.5 4.5t8.5 1.5q5 0 7 -1.5t4 -4.5q3 -4 8.5 -16.5t11 -27
t10.5 -28t8 -20.5q5 10 9.5 20t9.5 20q6 11 12 22.5t11 23.5l4 8t7 4t14.5 -3t9.5 -10q0 -4 -8.5 -22.5t-19 -40.5t-20.5 -40.5t-13 -22.5l-6 -6t-8 -3z" />
    <glyph glyph-name="Gcircumflex" unicode="&#x11c;" horiz-adv-x="351" 
d="M235 612q-11 0 -15.5 7t-6.5 17.5t-3 23t-5.5 23t-13 17.5t-25.5 7q-8 0 -12 -4t-9 -10q-19 -25 -30.5 -68t-18 -91t-8.5 -94.5t-2 -77.5q0 -23 1.5 -45.5t3.5 -45.5q2 -21 4.5 -56.5t10.5 -70t24.5 -59.5t47.5 -25q10 0 17.5 16t12 36.5t6.5 40.5t2 28q0 32 -2 63t-5 63
q-1 9 -1.5 18.5t-2.5 18.5q-15 0 -29 -4.5t-29 -4.5q-11 0 -21.5 9t-10.5 21q0 11 7.5 16.5t17.5 8.5t21 4t19 2q8 2 15.5 3t15.5 1q29 0 37.5 -15t8.5 -41q0 -20 3 -39.5t5 -39.5q3 -45 3 -90q0 -34 -4 -65.5t-17.5 -56t-38.5 -39t-67 -14.5q-19 0 -38 5.5t-33 18.5
q-26 23 -39.5 68.5t-20 97t-7.5 102t-1 83.5q0 38 0.5 83t5.5 90.5t17.5 87.5t35.5 73q17 23 39 37t51 14q17 0 34.5 -5.5t31.5 -13.5q23 -13 33.5 -38.5t10.5 -51.5q0 -14 -4.5 -26.5t-21.5 -12.5zM202 800q-6 0 -11 7q-3 4 -8 16t-10.5 26t-11 27.5t-8.5 20.5
q-11 -23 -22 -45l-22 -44q-2 -3 -3.5 -5.5t-6.5 -2.5t-14 3.5t-9 10.5q0 4 8.5 22.5t19 39.5t20.5 40t14 24q3 4 6 6.5t8 2.5t9 -3.5t6 -8.5l12 -24t18 -38.5t16 -38t7 -21.5q0 -6 -6 -10.5t-12 -4.5z" />
    <glyph glyph-name="gcircumflex" unicode="&#x11d;" horiz-adv-x="306" 
d="M120 542q20 0 38.5 -4t33.5 -19q29 -27 29 -64v-252q0 -43 1 -85t1 -85q0 -14 -1.5 -28t-3.5 -28q-1 -4 -1 -13q-1 -23 -6 -54t-17 -59.5t-32 -48.5t-50 -20q-13 0 -24 5.5t-21 13.5q-16 12 -25.5 32.5t-15 43.5t-7.5 46.5t-2 42.5q0 8 3 21t14 13q13 0 16.5 -9.5
t3.5 -19.5q0 -8 0.5 -16.5t0.5 -16.5q0 -12 2 -27.5t6.5 -31.5t11.5 -30t16 -21q2 -2 6.5 -4t6.5 -2q7 0 13.5 5.5t11.5 13t8.5 16.5t4.5 15q3 18 4.5 36t3.5 36q2 16 1.5 32t1.5 32q-17 -15 -35 -15q-16 0 -31 10q-31 19 -48 47t-25.5 61t-10 68t-1.5 67q0 18 1 39.5
t3 43.5t6 43t10 38q7 19 12 38t15 36q11 20 28 39t43 19zM154 112q0 42 -1.5 83t-1.5 83q0 56 0.5 111t-2.5 111q-10 2 -16 2q-17 0 -29 -11.5t-20 -25.5q-28 -49 -36 -108.5t-8 -115.5q0 -50 6 -98q3 -29 15 -57t38 -43q8 -5 16 -5q10 0 17 8.5t12 20.5t7.5 24.5t2.5 20.5z
M180 578q-6 0 -11 7q-4 5 -9 17t-10 25.5t-10 26.5t-9 21q-11 -23 -22 -44.5t-22 -44.5q-2 -3 -3.5 -6t-5.5 -3q-5 0 -14.5 4t-9.5 10q0 4 8.5 22.5t19 40.5t21 40.5t13.5 23.5q7 9 14 9q5 0 9 -3.5t6 -8.5l12 -24t18 -38.5t16 -38t7 -21.5q0 -6 -6 -10.5t-12 -4.5z" />
    <glyph glyph-name="Gbreve" unicode="&#x11e;" horiz-adv-x="351" 
d="M235 612q-11 0 -15.5 7t-6.5 17.5t-3 23t-5.5 23t-13 17.5t-25.5 7q-8 0 -12 -4t-9 -10q-19 -25 -30.5 -68t-18 -91t-8.5 -94.5t-2 -77.5q0 -23 1.5 -45.5t3.5 -45.5q2 -21 4.5 -56.5t10.5 -70t24.5 -59.5t47.5 -25q10 0 17.5 16t12 36.5t6.5 40.5t2 28q0 32 -2 63t-5 63
q-1 9 -1.5 18.5t-2.5 18.5q-15 0 -29 -4.5t-29 -4.5q-11 0 -21.5 9t-10.5 21q0 11 7.5 16.5t17.5 8.5t21 4t19 2q8 2 15.5 3t15.5 1q29 0 37.5 -15t8.5 -41q0 -20 3 -39.5t5 -39.5q3 -45 3 -90q0 -34 -4 -65.5t-17.5 -56t-38.5 -39t-67 -14.5q-19 0 -38 5.5t-33 18.5
q-26 23 -39.5 68.5t-20 97t-7.5 102t-1 83.5q0 38 0.5 83t5.5 90.5t17.5 87.5t35.5 73q17 23 39 37t51 14q17 0 34.5 -5.5t31.5 -13.5q23 -13 33.5 -38.5t10.5 -51.5q0 -14 -4.5 -26.5t-21.5 -12.5zM147 801q-24 0 -40 9t-25.5 23.5t-13.5 33.5t-4 40q0 10 3.5 21t15.5 11
q20 0 20 -21v-28t4 -25.5t13.5 -18.5t29.5 -7q13 0 22.5 6.5t15.5 17t8.5 23t2.5 23.5v10t1 11.5t4 9.5t9 4q13 0 18.5 -8t5.5 -20q0 -10 -1 -20.5t-3 -20.5q-8 -29 -31 -51.5t-55 -22.5z" />
    <glyph glyph-name="gbreve" unicode="&#x11f;" horiz-adv-x="306" 
d="M120 542q20 0 38.5 -4t33.5 -19q29 -27 29 -64v-252q0 -43 1 -85t1 -85q0 -14 -1.5 -28t-3.5 -28q-1 -4 -1 -13q-1 -23 -6 -54t-17 -59.5t-32 -48.5t-50 -20q-13 0 -24 5.5t-21 13.5q-16 12 -25.5 32.5t-15 43.5t-7.5 46.5t-2 42.5q0 8 3 21t14 13q13 0 16.5 -9.5
t3.5 -19.5q0 -8 0.5 -16.5t0.5 -16.5q0 -12 2 -27.5t6.5 -31.5t11.5 -30t16 -21q2 -2 6.5 -4t6.5 -2q7 0 13.5 5.5t11.5 13t8.5 16.5t4.5 15q3 18 4.5 36t3.5 36q2 16 1.5 32t1.5 32q-17 -15 -35 -15q-16 0 -31 10q-31 19 -48 47t-25.5 61t-10 68t-1.5 67q0 18 1 39.5
t3 43.5t6 43t10 38q7 19 12 38t15 36q11 20 28 39t43 19zM154 112q0 42 -1.5 83t-1.5 83q0 56 0.5 111t-2.5 111q-10 2 -16 2q-17 0 -29 -11.5t-20 -25.5q-28 -49 -36 -108.5t-8 -115.5q0 -50 6 -98q3 -29 15 -57t38 -43q8 -5 16 -5q10 0 17 8.5t12 20.5t7.5 24.5t2.5 20.5z
M131 583q-24 0 -40 9t-25.5 23.5t-13.5 33.5t-4 40q0 10 3.5 21t15.5 11q20 0 20 -21v-28t4 -25.5t13.5 -18.5t29.5 -7q13 0 22.5 6.5t15.5 17t8.5 23t2.5 23.5v10t1 11.5t4 9.5t9 4q13 0 18.5 -8t5.5 -20q0 -10 -1 -20.5t-3 -20.5q-8 -29 -31 -51.5t-55 -22.5z" />
    <glyph glyph-name="Gdotaccent" unicode="&#x120;" horiz-adv-x="351" 
d="M235 612q-11 0 -15.5 7t-6.5 17.5t-3 23t-5.5 23t-13 17.5t-25.5 7q-8 0 -12 -4t-9 -10q-19 -25 -30.5 -68t-18 -91t-8.5 -94.5t-2 -77.5q0 -23 1.5 -45.5t3.5 -45.5q2 -21 4.5 -56.5t10.5 -70t24.5 -59.5t47.5 -25q10 0 17.5 16t12 36.5t6.5 40.5t2 28q0 32 -2 63t-5 63
q-1 9 -1.5 18.5t-2.5 18.5q-15 0 -29 -4.5t-29 -4.5q-11 0 -21.5 9t-10.5 21q0 11 7.5 16.5t17.5 8.5t21 4t19 2q8 2 15.5 3t15.5 1q29 0 37.5 -15t8.5 -41q0 -20 3 -39.5t5 -39.5q3 -45 3 -90q0 -34 -4 -65.5t-17.5 -56t-38.5 -39t-67 -14.5q-19 0 -38 5.5t-33 18.5
q-26 23 -39.5 68.5t-20 97t-7.5 102t-1 83.5q0 38 0.5 83t5.5 90.5t17.5 87.5t35.5 73q17 23 39 37t51 14q17 0 34.5 -5.5t31.5 -13.5q23 -13 33.5 -38.5t10.5 -51.5q0 -14 -4.5 -26.5t-21.5 -12.5zM184 834q0 -14 -9 -23.5t-23 -9.5q-12 0 -18.5 10t-6.5 21q0 14 7.5 22
t21.5 8q11 0 19.5 -8.5t8.5 -19.5z" />
    <glyph glyph-name="gdotaccent" unicode="&#x121;" horiz-adv-x="306" 
d="M120 542q20 0 38.5 -4t33.5 -19q29 -27 29 -64v-252q0 -43 1 -85t1 -85q0 -14 -1.5 -28t-3.5 -28q-1 -4 -1 -13q-1 -23 -6 -54t-17 -59.5t-32 -48.5t-50 -20q-13 0 -24 5.5t-21 13.5q-16 12 -25.5 32.5t-15 43.5t-7.5 46.5t-2 42.5q0 8 3 21t14 13q13 0 16.5 -9.5
t3.5 -19.5q0 -8 0.5 -16.5t0.5 -16.5q0 -12 2 -27.5t6.5 -31.5t11.5 -30t16 -21q2 -2 6.5 -4t6.5 -2q7 0 13.5 5.5t11.5 13t8.5 16.5t4.5 15q3 18 4.5 36t3.5 36q2 16 1.5 32t1.5 32q-17 -15 -35 -15q-16 0 -31 10q-31 19 -48 47t-25.5 61t-10 68t-1.5 67q0 18 1 39.5
t3 43.5t6 43t10 38q7 19 12 38t15 36q11 20 28 39t43 19zM154 112q0 42 -1.5 83t-1.5 83q0 56 0.5 111t-2.5 111q-10 2 -16 2q-17 0 -29 -11.5t-20 -25.5q-28 -49 -36 -108.5t-8 -115.5q0 -50 6 -98q3 -29 15 -57t38 -43q8 -5 16 -5q10 0 17 8.5t12 20.5t7.5 24.5t2.5 20.5z
M156 630q0 -14 -9 -23.5t-23 -9.5q-12 0 -18.5 10t-6.5 21q0 14 7.5 22t21.5 8q11 0 19.5 -8.5t8.5 -19.5z" />
    <glyph glyph-name="uni0122" unicode="&#x122;" horiz-adv-x="351" 
d="M235 612q-11 0 -15.5 7t-6.5 17.5t-3 23t-5.5 23t-13 17.5t-25.5 7q-8 0 -12 -4t-9 -10q-19 -25 -30.5 -68t-18 -91t-8.5 -94.5t-2 -77.5q0 -23 1.5 -45.5t3.5 -45.5q2 -21 4.5 -56.5t10.5 -70t24.5 -59.5t47.5 -25q10 0 17.5 16t12 36.5t6.5 40.5t2 28q0 32 -2 63t-5 63
q-1 9 -1.5 18.5t-2.5 18.5q-15 0 -29 -4.5t-29 -4.5q-11 0 -21.5 9t-10.5 21q0 11 7.5 16.5t17.5 8.5t21 4t19 2q8 2 15.5 3t15.5 1q29 0 37.5 -15t8.5 -41q0 -20 3 -39.5t5 -39.5q3 -45 3 -90q0 -34 -4 -65.5t-17.5 -56t-38.5 -39t-67 -14.5q-19 0 -38 5.5t-33 18.5
q-26 23 -39.5 68.5t-20 97t-7.5 102t-1 83.5q0 38 0.5 83t5.5 90.5t17.5 87.5t35.5 73q17 23 39 37t51 14q17 0 34.5 -5.5t31.5 -13.5q23 -13 33.5 -38.5t10.5 -51.5q0 -14 -4.5 -26.5t-21.5 -12.5zM140 -131q-13 0 -22.5 10t-9.5 23q0 17 15.5 32.5t32.5 15.5q10 0 17 -5.5
t11.5 -13.5t6.5 -17.5t2 -17.5q0 -14 -4.5 -30.5t-10.5 -33.5l-12 -34t-9 -31q-4 -16 -20 -16q-6 0 -11 6.5t-5 12.5q0 7 4 20.5t9.5 29t10.5 30t8 22.5q-6 -3 -13 -3z" />
    <glyph glyph-name="uni0123" unicode="&#x123;" horiz-adv-x="306" 
d="M125 648q6 6 16 6q12 0 18.5 -10t6.5 -21q0 -14 -13 -28.5t-28 -14.5q-9 0 -14.5 5.5t-8.5 13t-4.5 16t-1.5 14.5q0 25 9 48.5t16 46.5q2 8 3.5 16t3.5 16q1 5 5 8.5t9 3.5q7 0 9.5 -7t2.5 -12q0 -6 -3.5 -19.5t-8.5 -29t-10 -30.5t-7 -22zM154 112q0 42 -1.5 83t-1.5 83
v111v55.5t-2 55.5q-10 2 -16 2q-17 0 -29 -11.5t-20 -25.5q-28 -49 -36 -108.5t-8 -115.5q0 -50 6 -98q3 -29 15 -57t38 -43q8 -5 16 -5q10 0 17 8.5t12 20.5t7.5 24.5t2.5 20.5zM120 542q20 0 38.5 -4t33.5 -19q29 -27 29 -64v-252q0 -43 1 -85t1 -85q0 -14 -1.5 -28
t-3.5 -28q-1 -4 -1 -13q-1 -23 -6 -54t-17 -59.5t-32 -48.5t-50 -20q-13 0 -24 5.5t-21 13.5q-16 12 -25.5 32.5t-15 43.5t-7.5 46.5t-2 42.5q0 8 3 21t14 13q13 0 16.5 -9.5t3.5 -19.5q0 -14 1.5 -37.5t6.5 -47t15 -42t27 -22.5h1q7 0 13.5 5.5t11.5 13.5t8 16.5t4 14.5
q3 18 4.5 36t3.5 36q2 16 1.5 32t1.5 32q-17 -15 -35 -15q-16 0 -31 10q-31 19 -48 47t-25.5 61t-10 68t-1.5 67q0 18 1 39.5t3 43.5t6 43t10 38q7 19 12 38t15 36q11 20 28 39t43 19z" />
    <glyph glyph-name="Hcircumflex" unicode="&#x124;" horiz-adv-x="350" 
d="M66 756q20 0 24 -11t4 -28q0 -64 1 -128t1 -128q0 -9 -0.5 -18.5t0.5 -18.5q11 -1 21.5 -1h21.5q18 0 36.5 1t36.5 1q2 0 4.5 -0.5t4.5 0.5q-1 78 -2.5 156t-1.5 156q0 9 3 15.5t14 6.5q16 0 22.5 -9.5t7.5 -23.5q3 -56 4 -111t1 -111q0 -16 -1 -31.5t-1 -31.5
q0 -78 1 -156t1 -156q0 -27 2.5 -53.5t2.5 -53.5q0 -7 -3.5 -13.5t-11.5 -6.5q-5 0 -10 -1.5t-10 -1.5q-15 0 -15 15q0 16 1 31.5t1 31.5q0 62 -2.5 123.5t-2.5 123.5v26.5t-1 26.5q-32 -1 -62.5 -1h-62.5v-17q0 -63 1 -125.5t1 -125.5q0 -9 -0.5 -18.5t-0.5 -18.5v-46
q0 -19 -4.5 -22t-22.5 -3q-7 0 -13 -0.5t-13 -0.5t-13.5 1t-13.5 3l-5 5q-2 11 -2.5 22t-0.5 22q0 57 -1 113.5t-1 113.5q0 30 0.5 60t0.5 60q0 20 -1.5 41t-1.5 41q0 57 -0.5 113t-0.5 113q0 5 0.5 10.5t0.5 10.5q0 16 4.5 20t19.5 6q10 2 19 2h19zM192 800q-6 0 -11 7
q-3 4 -8 16t-10.5 26t-11 27.5t-8.5 20.5q-11 -23 -22 -45l-22 -44q-2 -3 -3.5 -5.5t-6.5 -2.5t-14 3.5t-9 10.5q0 4 8.5 22.5t19 39.5t20.5 40t14 24q3 4 6 6.5t8 2.5t9 -3.5t6 -8.5l12 -24t18 -38.5t16 -38t7 -21.5q0 -6 -6 -10.5t-12 -4.5z" />
    <glyph glyph-name="hcircumflex" unicode="&#x125;" horiz-adv-x="330" 
d="M14 588q0 42 -0.5 84t-0.5 84v28.5t4.5 20t14.5 11.5t30 4q17 0 22.5 -7.5t6.5 -23.5q1 -11 1 -22.5v-22.5q0 -57 0.5 -112t0.5 -112q14 16 32 25.5t40 9.5q35 0 54.5 -18.5t28.5 -45.5t10.5 -58t1.5 -56q0 -54 -1.5 -107.5t-1.5 -107.5v-148q0 -6 -2.5 -11t-10.5 -5h-23
t-11 16q0 85 1.5 170t1.5 171q0 12 -0.5 33t-2.5 43.5t-6.5 41.5t-13.5 27q-6 5 -11 6.5t-13 1.5q-14 0 -25 -6.5t-19.5 -16.5t-14.5 -22.5t-10 -23.5q-2 -5 -4 -10.5t-2 -10.5q-2 -24 -1.5 -48t-0.5 -48q-1 -51 -2 -100t-1 -100q0 -14 -1 -26.5t-1 -26.5q0 -13 0.5 -26
t0.5 -26q0 -9 -7 -14q-4 -2 -8 -2.5t-9 -0.5q-8 0 -17 -1t-17 -1q-9 0 -14 4t-7 10.5t-2 14.5v15q0 48 2 96t3 96q2 89 3.5 177t1.5 177zM172 850q-6 0 -11 7q-3 4 -8 16t-10.5 26t-11 27.5t-8.5 20.5q-11 -23 -22 -45l-22 -44q-2 -3 -3.5 -5.5t-6.5 -2.5t-14 3.5t-9 10.5
q0 4 8.5 22.5t19 39.5t20.5 40t14 24q3 4 6 6.5t8 2.5t9 -3.5t6 -8.5l12 -24t18 -38.5t16 -38t7 -21.5q0 -6 -6 -10.5t-12 -4.5z" />
    <glyph glyph-name="Hbar" unicode="&#x126;" horiz-adv-x="438" 
d="M24 588q-10 0 -13 4.5t-3 13.5q0 5 0.5 16.5t8.5 11.5h52q0 23 -0.5 45t-0.5 45q0 12 4.5 18t12 8t17 2h18.5q27 0 33.5 -7.5t6.5 -33.5q0 -20 -0.5 -38.5t-0.5 -38.5q5 -1 14 -1h111q0 26 -1 50.5t-1 50.5q0 8 3 14.5t13 6.5q29 0 31 -32l3 -91h38q6 0 13.5 0.5t14 -1
t11 -6t4.5 -13.5q0 -15 -4.5 -21t-20.5 -6q-14 0 -28 0.5t-28 0.5q1 -20 1.5 -40.5t0.5 -40.5q0 -17 -0.5 -34t-0.5 -34q0 -78 1 -156.5t1 -156.5q0 -27 2 -53.5t2 -53.5q0 -15 -10 -18t-22 -3q-8 0 -12 5t-4 13q0 69 -2.5 137.5t-2.5 137.5q0 21 0.5 42t-1.5 42
q-32 -1 -62.5 -1h-62.5v-17q0 -60 1 -118.5t1 -118.5v-77q0 -5 -0.5 -10t-0.5 -10q0 -19 -4.5 -22t-22.5 -3h-26.5t-26.5 3l-5 5q-2 8 -2.5 15t-0.5 15q0 60 -1 120t-1 120q0 31 0.5 61t0.5 61q0 25 -1.5 49.5t-1.5 49.5q0 23 0.5 46.5t0.5 46.5h-46zM208 420q20 0 39 0.5
t39 0.5l-1 165q-25 1 -50 1.5t-50 0.5h-25v-37q0 -23 0.5 -47t0.5 -47q0 -9 -0.5 -18t0.5 -18q8 -1 15.5 -1h15.5h16z" />
    <glyph glyph-name="hbar" unicode="&#x127;" horiz-adv-x="375" 
d="M274 345v33.5t-2.5 44t-7 42t-13.5 27.5q-5 5 -10.5 6.5t-13.5 1.5q-17 0 -30.5 -10.5t-21.5 -24.5q-2 -3 -5.5 -10.5t-7 -16t-6 -16t-2.5 -11.5q0 -74 -2.5 -147t-2.5 -147q0 -18 -1 -35.5t-1 -35.5q0 -7 0.5 -13t0.5 -13q0 -23 -24 -23q-8 0 -17 -0.5t-17 -0.5
q-13 0 -17 5.5t-4 17.5q0 152 4.5 303t4.5 303h-65q-12 0 -12.5 12t-0.5 20q0 14 8 14.5t19 0.5q13 0 25 -0.5t25 -0.5q0 19 -0.5 37t-0.5 37v29t4.5 20t14.5 11.5t30 3.5q17 0 23 -7.5t6 -23.5q0 -27 0.5 -54t0.5 -54q15 0 30 -0.5t30 -0.5q13 0 18 -3.5t5 -17.5v-9
q0 -13 -8.5 -14.5t-19.5 -1.5h-27t-27 1v-112q14 16 31.5 25.5t38.5 9.5q35 0 54.5 -18.5t28.5 -45.5t10.5 -58t1.5 -56q0 -64 -1.5 -127t-1.5 -127v-52t1 -52q0 -16 -14 -16q-6 0 -12 -0.5t-10.5 0.5t-7.5 5t-3 12q0 84 1 166.5t1 166.5z" />
    <glyph glyph-name="Itilde" unicode="&#x128;" horiz-adv-x="358" 
d="M250 713q-17 0 -34.5 0.5t-34.5 0.5v-44q0 -45 3 -88t3 -88q1 -115 1.5 -229.5t0.5 -229.5q19 0 40.5 1t40.5 -4q9 -2 13 -6t4 -14q0 -7 -5 -12q-6 -5 -15 -5q-26 0 -52 -0.5t-52 -0.5q-29 0 -57.5 2.5t-57.5 2.5q-7 0 -13 -0.5t-13 -0.5t-18.5 1.5t-11.5 12.5
q0 17 11 20.5t25 3.5q18 0 35.5 -0.5t35.5 -0.5v24q0 122 -1 242.5t-6 242.5q-2 43 -3 85t-2 85h-19.5h-23.5t-22.5 0.5t-17.5 2.5q-17 4 -17 21q0 8 5.5 12t13.5 4h111q9 0 17.5 -1t17.5 -1q19 0 37.5 -1t37.5 -1q4 0 13.5 1t18.5 0t16 -4t7 -10q0 -17 -9 -20.5t-23 -3.5z
M67 820q-8 0 -11 6.5t-3 12.5q0 9 3.5 21.5t10 23.5t15.5 18.5t20 7.5q14 0 24 -12t18.5 -26.5t16 -26.5t16.5 -12q7 0 12.5 9.5t9 22t5.5 25t2 17.5q0 7 3 14t11 7q17 0 17 -17q0 -12 -3 -30.5t-10 -36.5t-17.5 -30.5t-26.5 -12.5q-21 0 -33 11.5t-19.5 25t-13 25
t-13.5 11.5q-5 0 -8 -8.5t-6.5 -18.5t-8 -18.5t-11.5 -8.5z" />
    <glyph glyph-name="itilde" unicode="&#x129;" horiz-adv-x="188" 
d="M42 33q0 39 2 77.5t2 77.5q0 78 0.5 156t0.5 156q0 10 -0.5 19.5t1.5 16t8.5 10.5t20.5 4h11t11 -1q14 -2 17 -7t3 -18q0 -41 1 -81.5t1 -81.5q0 -82 -2 -164t-2 -164v-11t-4 -11q-5 -6 -16.5 -8.5t-19.5 -2.5q-18 0 -26.5 7t-8.5 26zM15 593q-8 0 -11 6.5t-3 12.5
q0 9 3.5 21.5t10 23.5t15.5 18.5t20 7.5q14 0 24 -12t18.5 -26.5t16 -26.5t16.5 -12q5 0 10 7t7 11q6 12 9 27t3 29q0 8 3 14.5t12 6.5q16 0 16 -17q0 -12 -3 -30.5t-10 -36.5t-17.5 -30.5t-26.5 -12.5q-21 0 -33 11.5t-19.5 25t-13 25t-13.5 11.5q-5 0 -8 -8.5t-6.5 -18.5
t-8 -18.5t-11.5 -8.5z" />
    <glyph glyph-name="Imacron" unicode="&#x12a;" horiz-adv-x="358" 
d="M250 713q-17 0 -34.5 0.5t-34.5 0.5v-44q0 -45 3 -88t3 -88q1 -115 1.5 -229.5t0.5 -229.5q19 0 40.5 1t40.5 -4q9 -2 13 -6t4 -14q0 -7 -5 -12q-6 -5 -15 -5q-26 0 -52 -0.5t-52 -0.5q-29 0 -57.5 2.5t-57.5 2.5q-7 0 -13 -0.5t-13 -0.5t-18.5 1.5t-11.5 12.5
q0 17 11 20.5t25 3.5q18 0 35.5 -0.5t35.5 -0.5v24q0 122 -1 242.5t-6 242.5q-2 43 -3 85t-2 85h-19.5h-23.5t-22.5 0.5t-17.5 2.5q-17 4 -17 21q0 8 5.5 12t13.5 4h111q9 0 17.5 -1t17.5 -1q19 0 37.5 -1t37.5 -1q4 0 13.5 1t18.5 0t16 -4t7 -10q0 -17 -9 -20.5t-23 -3.5z
M251 819q0 -12 -7 -15.5t-18 -4.5q-24 -2 -47.5 -1t-47.5 1q-18 0 -36 -0.5t-36 -0.5q-8 0 -13.5 5.5t-5.5 13.5q0 19 20 19h176q7 0 11 -5t4 -12z" />
    <glyph glyph-name="imacron" unicode="&#x12b;" horiz-adv-x="210" 
d="M52 33q0 39 2 77.5t2 77.5q0 78 0.5 156t0.5 156q0 10 -0.5 19.5t1.5 16t8.5 10.5t20.5 4h11t11 -1q14 -2 17 -7t3 -18q0 -41 1 -81.5t1 -81.5q0 -82 -2 -164t-2 -164v-11t-4 -11q-5 -6 -16.5 -8.5t-19.5 -2.5q-18 0 -26.5 7t-8.5 26zM202 610q0 -12 -7 -15.5t-18 -4.5
q-24 -2 -47.5 -1t-47.5 1q-18 0 -36 -0.5t-36 -0.5q-8 0 -13.5 5.5t-5.5 13.5q0 19 20 19h176q7 0 11 -5t4 -12z" />
    <glyph glyph-name="Iogonek" unicode="&#x12e;" horiz-adv-x="376" 
d="M170 -136q-31 0 -48.5 23t-17.5 52q0 37 25 64q-20 2 -38.5 2h-38.5q-4 0 -12 -0.5t-15.5 0t-13.5 3.5t-6 10q0 17 11 20.5t25 3.5q18 0 35.5 -0.5t35.5 -0.5v24q0 121 -1.5 241t-5.5 241q-2 42 -3.5 84.5t-1.5 84.5q-6 0 -18 -0.5t-25 0t-24.5 1t-16.5 2.5
q-7 2 -11.5 5.5t-4.5 11.5q0 20 19 20h110q27 0 54.5 -2.5t54.5 -2.5q6 0 12.5 0.5t12.5 0.5q8 0 19 -1.5t11 -12.5q0 -9 -3.5 -14t-9.5 -7t-13 -2h-14h-60v-14q0 -51 3 -102t3 -102q1 -115 1.5 -228t0.5 -228q18 0 40.5 1t39.5 -4q7 -2 12 -5t5 -11q0 -14 -8 -17.5
t-20 -3.5h-90q-5 -3 -8 -7t-8 -8q-23 -19 -23 -48q0 -16 7.5 -26.5t24.5 -10.5q8 0 16 3t16 3t11.5 -5.5t3.5 -12.5q0 -8 -5.5 -13t-13.5 -7.5t-16.5 -3.5t-14.5 -1z" />
    <glyph glyph-name="iogonek" unicode="&#x12f;" horiz-adv-x="149" 
d="M48 637q-19 0 -31 17t-12 34t9.5 32t28.5 15q20 0 31 -15t11 -33q0 -17 -8.5 -33.5t-28.5 -16.5zM102 -108q0 -9 -5.5 -14t-13 -8t-16 -4t-14.5 -1q-32 0 -48.5 21.5t-16.5 51.5q0 17 6.5 34.5t18.5 30.5q-7 5 -8.5 12t-1.5 15q0 38 1.5 75.5t1.5 75.5q0 72 0.5 143
t0.5 143q0 16 -0.5 31t-0.5 31q0 10 11.5 13.5t19.5 3.5q17 0 29.5 -3t12.5 -25q0 -42 0.5 -83.5t0.5 -83.5q0 -81 -2 -160.5t-2 -160.5q0 -8 -0.5 -15t-10.5 -12q-4 -11 -10.5 -15t-13 -9.5t-11 -14.5t-4.5 -28q0 -15 6.5 -25t23.5 -10q9 0 21 3q7 3 10 3q6 0 10.5 -4.5
t4.5 -10.5z" />
    <glyph glyph-name="Idotaccent" unicode="&#x130;" horiz-adv-x="358" 
d="M250 713q-17 0 -34.5 0.5t-34.5 0.5v-44q0 -45 3 -88t3 -88q1 -115 1.5 -229.5t0.5 -229.5q19 0 40.5 1t40.5 -4q9 -2 13 -6t4 -14q0 -7 -5 -12q-6 -5 -15 -5q-26 0 -52 -0.5t-52 -0.5q-29 0 -57.5 2.5t-57.5 2.5q-7 0 -13 -0.5t-13 -0.5t-18.5 1.5t-11.5 12.5
q0 17 11 20.5t25 3.5q18 0 35.5 -0.5t35.5 -0.5v24q0 122 -1 242.5t-6 242.5q-2 43 -3 85t-2 85h-19.5h-23.5t-22.5 0.5t-17.5 2.5q-17 4 -17 21q0 8 5.5 12t13.5 4h111q9 0 17.5 -1t17.5 -1q19 0 37.5 -1t37.5 -1q4 0 13.5 1t18.5 0t16 -4t7 -10q0 -17 -9 -20.5t-23 -3.5z
M164 834q0 -14 -9 -23.5t-23 -9.5q-12 0 -18.5 10t-6.5 21q0 14 7.5 22t21.5 8q11 0 19.5 -8.5t8.5 -19.5z" />
    <glyph glyph-name="dotlessi" unicode="&#x131;" horiz-adv-x="168" 
d="M2 33q0 39 2 77.5t2 77.5q0 78 0.5 156t0.5 156q0 10 -0.5 19.5t1.5 16t8.5 10.5t20.5 4h11t11 -1q14 -2 17 -7t3 -18q0 -41 1 -81.5t1 -81.5q0 -82 -2 -164t-2 -164v-11t-4 -11q-5 -6 -16.5 -8.5t-19.5 -2.5q-18 0 -26.5 7t-8.5 26z" />
    <glyph glyph-name="IJ" unicode="&#x132;" horiz-adv-x="729" 
d="M264 713q-17 0 -34.5 0.5t-34.5 0.5v-44q0 -45 2.5 -88t3.5 -88q2 -115 2 -229.5v-229.5q19 0 40.5 1t40.5 -4q9 -2 13 -6t4 -14q0 -8 -5 -12q-5 -5 -15 -5q-26 0 -52.5 -0.5t-52.5 -0.5q-29 0 -57 2.5t-57 2.5q-7 0 -13 -0.5t-13 -0.5t-18.5 1.5t-11.5 12.5
q0 17 11 20.5t25 3.5q18 0 35.5 -0.5t35.5 -0.5v24q0 122 -1 242.5t-6 242.5q-2 43 -3 85t-2 85h-19h-23t-23 0.5t-18 2.5q-17 4 -17 21q0 8 5.5 12t13.5 4h110q9 0 18 -1t18 -1q19 0 37 -1t37 -1q4 0 13.5 1t19 0t16.5 -4t7 -10q0 -17 -9 -20.5t-23 -3.5zM371 290
q9 0 13 -6t6 -14q3 -13 3.5 -34t1 -45.5t3 -50t9 -46t18.5 -33.5t33 -13q26 0 38 14.5t17 38.5q5 29 6 58t1 58q0 24 1 47.5t1 47.5q0 103 -4.5 203.5t-6.5 203.5q-16 -1 -33.5 -0.5t-32.5 2.5q-18 3 -18 22q0 8 5.5 12.5t13.5 4.5q5 0 8 -1h81q16 0 31 -1t31 -2
q6 0 19 -0.5t26.5 -3t24 -7t10.5 -13.5t-4 -15.5t-14 -6.5q-17 0 -33 2.5t-33 2.5h-1q0 -56 3.5 -111.5t4.5 -111.5q1 -73 2 -145t1 -145q0 -21 -1 -49t-6.5 -55t-17.5 -50t-33 -34q-25 -14 -53 -14q-16 0 -32 1.5t-31 7.5q-30 11 -46 43t-23 71t-8 78.5t-1 66.5q0 9 5 15.5
t15 6.5z" />
    <glyph glyph-name="ij" unicode="&#x133;" horiz-adv-x="332" 
d="M4 33q0 39 2 77.5t2 77.5q0 78 0.5 156t0.5 156q0 10 -0.5 19.5t1.5 16t8.5 10.5t20.5 4h11t11 -1q14 -2 17 -7t3 -18q0 -41 1 -81.5t1 -81.5q0 -82 -2 -164t-2 -164v-11t-4 -11q-5 -6 -16.5 -8.5t-19.5 -2.5q-18 0 -26.5 7t-8.5 26zM45 734q20 0 31.5 -15t11.5 -34
q0 -17 -9 -34t-29 -17t-31.5 17.5t-11.5 35.5q0 17 9.5 32t28.5 15zM216 618q-10 0 -18 5.5t-13.5 13.5t-8.5 17.5t-3 18.5q0 17 10 31.5t29 14.5q20 0 31.5 -15.5t11.5 -33.5q0 -17 -9.5 -34.5t-29.5 -17.5zM98 -53q0 -6 -1 -11.5t-1 -11.5q0 -11 3 -27t9 -26q2 -4 8 -11.5
t11 -7.5t11 5t9 8q14 15 22 40.5t11.5 54t4.5 56t1 47.5q0 23 -0.5 46.5t-1.5 46.5q-1 29 -0.5 58t-1.5 58q-2 59 -3.5 116.5t-1.5 116.5q0 21 8.5 27t25.5 6q20 0 31 -5t11 -28q0 -3 0.5 -6.5t0.5 -6.5q2 -18 3 -36t1 -36q0 -26 -1 -50.5t-1 -50.5q0 -11 1 -22t1 -22
q0 -38 0.5 -75t0.5 -75q0 -20 -0.5 -39t-0.5 -39q-1 -30 -2.5 -57.5t-7.5 -53t-18.5 -49t-34.5 -47.5q-10 -11 -22.5 -19t-27.5 -8q-12 0 -24 2.5t-21 10.5q-20 20 -29.5 49t-9.5 57q0 9 2 22t15 13q20 0 20 -20z" />
    <glyph glyph-name="Jcircumflex" unicode="&#x134;" horiz-adv-x="363" 
d="M20 290q9 0 13 -6t6 -14q4 -19 4 -56t3.5 -74t16.5 -64.5t44 -27.5q26 0 38.5 14.5t16.5 38.5q5 29 6 58t1 58q0 24 1 47.5t1 47.5q0 103 -4.5 203.5t-6.5 203.5q-16 -1 -33.5 -0.5t-32.5 2.5q-19 3 -19 22q0 8 6.5 12.5t13.5 4.5q5 0 8 -1h81q16 0 31 -1t31 -2
q6 0 19 -0.5t26.5 -3t24 -7t10.5 -13.5t-4 -15.5t-14 -6.5q-17 0 -33 2.5t-33 2.5h-1q0 -56 3.5 -111.5t4.5 -111.5q1 -73 2 -145t1 -145q0 -21 -1 -49t-6.5 -55t-17.5 -50t-33 -34q-25 -14 -53 -14q-16 0 -32 1.5t-31 7.5q-30 11 -46 43t-23 71t-8 78.5t-1 66.5q0 9 5 15.5
t15 6.5zM252 800q-6 0 -11 7q-3 4 -8 16t-10.5 26t-11 27.5t-8.5 20.5q-11 -23 -22 -45l-22 -44q-2 -3 -3.5 -5.5t-6.5 -2.5t-14 3.5t-9 10.5q0 4 8.5 22.5t19 39.5t20.5 40t14 24q3 4 6 6.5t8 2.5t9 -3.5t6 -8.5l12 -24t18 -38.5t16 -38t7 -21.5q0 -6 -6 -10.5t-12 -4.5z
" />
    <glyph glyph-name="jcircumflex" unicode="&#x135;" horiz-adv-x="211" 
d="M-27 -53q0 -6 -1 -11.5t-1 -11.5q0 -11 3 -27t9 -26q2 -4 8 -11.5t11 -7.5t11 5t9 8q14 15 22 40.5t11.5 54t4.5 56t1 47.5q0 23 -0.5 46.5t-1.5 46.5q-1 29 -0.5 58t-1.5 58q-2 59 -3.5 116.5t-1.5 116.5q0 21 8.5 27t25.5 6q20 0 31 -5t11 -28q0 -3 0.5 -6.5t0.5 -6.5
q2 -18 3 -36t1 -36q0 -26 -1 -50.5t-1 -50.5q0 -11 1 -22t1 -22q0 -38 0.5 -75t0.5 -75q0 -20 -0.5 -39t-0.5 -39q-1 -30 -2.5 -57.5t-7.5 -53t-18.5 -49t-34.5 -47.5q-10 -11 -22.5 -19t-27.5 -8q-12 0 -24 2.5t-21 10.5q-20 20 -29.5 49t-9.5 57q0 9 2 22t15 13
q20 0 20 -20zM142 590q-6 0 -11 7q-3 4 -8 16t-10.5 26t-11 27.5t-8.5 20.5q-11 -23 -22 -45l-22 -44q-2 -3 -3.5 -5.5t-6.5 -2.5t-14 3.5t-9 10.5q0 4 8.5 22.5t19 39.5t20.5 40t14 24q3 4 6 6.5t8 2.5t9 -3.5t6 -8.5l12 -24t18 -38.5t16 -38t7 -21.5q0 -6 -6 -10.5
t-12 -4.5z" />
    <glyph glyph-name="uni0136" unicode="&#x136;" horiz-adv-x="358" 
d="M94 734q0 -75 -1 -148t-1 -148q14 24 26 49.5t25 50.5q13 24 24.5 49t24.5 49q2 3 3.5 6l3.5 7q10 23 19 46.5t20 46.5q3 6 7 11.5t12 5.5t18 -5.5t10 -14.5q0 -6 -7 -24t-18.5 -42t-25 -51.5t-26 -53t-23 -45.5t-14.5 -30q-3 -7 -5.5 -13t-5.5 -13q20 -51 40 -100.5
t37 -100.5q14 -42 25 -83.5t24 -83.5l5.5 -16.5t7 -22.5t6 -22.5t2.5 -15.5q0 -11 -8 -17t-18 -6q-7 0 -11.5 4.5t-6.5 9.5q-3 8 -5 15.5t-4 15.5q-4 14 -8 27.5t-8 27.5q-20 79 -46.5 161.5t-58.5 157.5q-10 -17 -21 -34t-19 -35q1 -36 0.5 -71.5t0.5 -71.5q2 -43 4 -85
t2 -85q0 -3 -1 -5.5t-1 -5.5q0 -13 -6 -17t-18 -4q-13 0 -25.5 -0.5t-25.5 -0.5q-19 0 -19 20q0 14 0.5 28t0.5 28q0 126 -1.5 250.5t-1.5 250.5q0 40 1.5 79.5t1.5 79.5q0 14 7.5 16.5t18.5 2.5t20.5 -0.5t20.5 -0.5q14 0 18 -4.5t4 -18.5zM157 -134q-13 0 -22.5 10
t-9.5 23q0 17 15.5 32.5t32.5 15.5q10 0 17 -5.5t11.5 -13.5t6.5 -17.5t2 -17.5q0 -14 -4.5 -30.5t-10.5 -33.5l-12 -34t-9 -31q-4 -16 -20 -16q-6 0 -11 6.5t-5 12.5q0 7 4 20.5t9.5 29t10.5 30t8 22.5q-6 -3 -13 -3z" />
    <glyph glyph-name="uni0137" unicode="&#x137;" horiz-adv-x="304" 
d="M2 772q0 22 12.5 24.5t29.5 2.5q14 0 26 -4t12 -21v-322q0 -37 -1.5 -73.5t-2.5 -73.5q23 40 47 79t47 79q3 5 7.5 14t10 19t10.5 18t8 11q8 6 14 6q9 0 16 -7t7 -16t-4 -16.5t-8 -15.5q-23 -42 -47 -82t-47 -82q22 -57 40.5 -115t38.5 -117q2 -6 6 -15.5t7.5 -19.5
t6.5 -19t3 -14q0 -9 -6.5 -14t-14.5 -5q-15 0 -22 12.5t-12 24.5q-21 57 -38.5 115.5t-38.5 115.5q-7 -13 -14 -25t-14 -25v-26l1 -1q-2 -44 0 -87t2 -87q0 -11 -9.5 -13t-17.5 -2h-15t-17 1.5t-14 5.5t-6 12q0 17 -1.5 33t-1.5 33q0 57 2 112.5t2 112.5q0 118 -2 233.5
t-2 233.5zM124 -142q-14 0 -23 10.5t-9 23.5q0 17 15 32.5t32 15.5q10 0 17.5 -5t11.5 -13t6 -17.5t2 -18.5q0 -14 -4.5 -30.5t-10.5 -33.5l-12 -34t-9 -32v1q0 -7 -6.5 -11.5t-12.5 -4.5q-7 0 -11.5 6.5t-4.5 12.5q0 7 4 20.5t9.5 29t10.5 30t8 22.5q-8 -4 -13 -4z" />
    <glyph glyph-name="kgreenlandic" unicode="&#x138;" horiz-adv-x="344" 
d="M92 286q15 17 28 35.5t27 36.5q12 17 24 32.5t24 32.5q5 4 12.5 17t15.5 27t16 25t16 11q7 0 15.5 -3t8.5 -11q0 -7 -15 -30t-34 -49t-37 -50t-24 -33q-3 -5 -5.5 -9t-5.5 -8q11 -17 21.5 -34t20.5 -34q18 -32 33.5 -65.5t29.5 -68.5q2 -6 8.5 -19.5t13 -28.5t12 -28
t5.5 -17q0 -8 -8 -11.5t-15 -3.5q-8 0 -15 9q-2 3 -6 10.5t-7.5 16.5t-7 17t-4.5 12q-12 32 -25.5 64t-29.5 63q-3 6 -10 19t-14.5 27.5t-14.5 26.5t-10 15q-8 -8 -22.5 -23t-19.5 -26q1 -23 1 -47t1 -47q2 -29 3.5 -57t1.5 -57q0 -8 -2.5 -12.5t-10.5 -6.5q-3 -1 -11 -1.5
t-17 -0.5h-18h-13q-6 0 -11 2t-5 10v147q0 26 -0.5 52.5t-0.5 52.5q0 32 -0.5 63t-0.5 63q0 17 0.5 34t0.5 34q0 8 0.5 15.5t0.5 15.5q0 7 7 10q3 1 8 1h8q11 0 29.5 0.5t26.5 -3.5q2 -3 2.5 -7t0.5 -8q0 -50 -1 -99t-1 -99z" />
    <glyph glyph-name="Lacute" unicode="&#x139;" horiz-adv-x="264" 
d="M4 29q0 67 -0.5 134t-0.5 134q0 98 1 195.5t1 195.5q0 14 -0.5 26.5t0.5 26.5q0 8 2 13.5t12 5.5q7 0 13.5 0.5t12.5 0.5q8 0 19 -1t16 -8q1 -2 1.5 -20t0.5 -40.5v-42.5v-24q0 -42 -0.5 -83.5t-0.5 -83.5q0 -27 1 -53.5t1 -53.5q0 -30 -1 -59.5t-1 -59.5v-133
q0 -16 0.5 -31t1.5 -31h93q6 0 11.5 0.5t11.5 0.5q13 0 17 -6.5t4 -18.5q0 -8 -7.5 -10.5t-13.5 -2.5q-20 0 -41 0.5t-41 0.5q-17 0 -32.5 -0.5t-32.5 -0.5q-10 0 -19 -0.5t-15.5 2t-10 8.5t-3.5 19zM114 922q7 0 13 -5.5t6 -12.5q0 -4 -9 -17.5t-20 -29.5t-21.5 -30.5
t-14.5 -19.5q-3 -4 -7 -7t-9 -3q-8 0 -13.5 5.5t-5.5 13.5q0 5 6 14.5t13.5 20t15.5 20t11 14.5q4 5 7 11.5t8 11.5q4 5 9 9.5t11 4.5z" />
    <glyph glyph-name="lacute" unicode="&#x13a;" horiz-adv-x="137" 
d="M65 787q0 -94 -1 -187.5t-1 -187.5v-118q0 -67 1.5 -133t1.5 -133q0 -21 -6 -25t-25 -4q-9 0 -21.5 3t-12.5 16v96q0 44 1.5 86.5t1.5 86.5v172q0 82 -1.5 163t-1.5 163q0 18 6 23t23 5h8q15 0 21 -5.5t6 -20.5zM96 993q7 0 12.5 -5t5.5 -12q0 -3 -8.5 -17t-19.5 -30
t-21.5 -30.5t-14.5 -19.5q-7 -10 -16 -10q-8 0 -13.5 5.5t-5.5 13.5q0 5 6 14.5t13.5 20t15.5 20t11 14.5q4 5 7.5 11t7.5 12q3 5 8.5 9t11.5 4z" />
    <glyph glyph-name="uni013B" unicode="&#x13b;" horiz-adv-x="264" 
d="M4 29q0 67 -0.5 134t-0.5 134q0 98 1 195.5t1 195.5q0 14 -0.5 26.5t0.5 26.5q0 8 2 13.5t12 5.5q7 0 13.5 0.5t12.5 0.5q8 0 19 -1t16 -8q1 -2 1.5 -20t0.5 -40.5v-42.5v-24q0 -42 -0.5 -83.5t-0.5 -83.5q0 -27 1 -53.5t1 -53.5q0 -30 -1 -59.5t-1 -59.5v-133
q0 -16 0.5 -31t1.5 -31h93q6 0 11.5 0.5t11.5 0.5q13 0 17 -6.5t4 -18.5q0 -8 -7.5 -10.5t-13.5 -2.5q-20 0 -41 0.5t-41 0.5q-17 0 -32.5 -0.5t-32.5 -0.5q-10 0 -19 -0.5t-15.5 2t-10 8.5t-3.5 19zM82 -135q-13 0 -22.5 10t-9.5 23q0 17 15.5 32.5t32.5 15.5q10 0 17 -5.5
t11.5 -13.5t6.5 -17.5t2 -17.5q0 -14 -4.5 -30.5t-10.5 -33.5l-12 -34t-9 -31q-4 -16 -20 -16q-6 0 -11 6.5t-5 12.5q0 7 4 20.5t9.5 29t10.5 30t8 22.5q-6 -3 -13 -3z" />
    <glyph glyph-name="uni013C" unicode="&#x13c;" horiz-adv-x="137" 
d="M75 787q0 -94 -1 -187.5t-1 -187.5v-118q0 -67 1.5 -133t1.5 -133q0 -21 -6 -25t-25 -4q-9 0 -21.5 3t-12.5 16v96q0 44 1.5 86.5t1.5 86.5v172q0 82 -1.5 163t-1.5 163q0 18 6 23t23 5h8q15 0 21 -5.5t6 -20.5zM34 -174q-14 0 -23 10.5t-9 23.5q0 17 15 32.5t32 15.5
q10 0 17.5 -5t11.5 -13t6 -17.5t2 -18.5q0 -14 -4.5 -30.5t-10.5 -33.5l-12 -34t-9 -32v1q0 -7 -6.5 -11.5t-12.5 -4.5q-7 0 -11.5 6.5t-4.5 12.5q0 7 4 20.5t9.5 29t10.5 30t8 22.5q-8 -4 -13 -4z" />
    <glyph glyph-name="Lcaron" unicode="&#x13d;" horiz-adv-x="264" 
d="M4 29q0 67 -0.5 134t-0.5 134q0 98 1 195.5t1 195.5q0 14 -0.5 26.5t0.5 26.5q0 8 2 13.5t12 5.5q7 0 13.5 0.5t12.5 0.5q8 0 19 -1t16 -8q1 -2 1.5 -20t0.5 -40.5v-42.5v-24q0 -42 -0.5 -83.5t-0.5 -83.5q0 -27 1 -53.5t1 -53.5q0 -30 -1 -59.5t-1 -59.5v-133
q0 -16 0.5 -31t1.5 -31h93q6 0 11.5 0.5t11.5 0.5q13 0 17 -6.5t4 -18.5q0 -8 -7.5 -10.5t-13.5 -2.5q-20 0 -41 0.5t-41 0.5q-17 0 -32.5 -0.5t-32.5 -0.5q-10 0 -19 -0.5t-15.5 2t-10 8.5t-3.5 19zM159 664q-14 0 -23 10.5t-9 23.5q0 17 15 32.5t32 15.5q10 0 17.5 -5
t11.5 -13t6 -17.5t2 -18.5q0 -14 -4.5 -30.5t-10.5 -33.5l-12 -34t-9 -32v1q0 -7 -6.5 -11.5t-12.5 -4.5q-7 0 -11.5 6.5t-4.5 12.5q0 7 4 20.5t9.5 29t10.5 30t8 22.5q-8 -4 -13 -4z" />
    <glyph glyph-name="lcaron" unicode="&#x13e;" horiz-adv-x="185" 
d="M65 787q0 -94 -1 -187.5t-1 -187.5v-118q0 -67 1.5 -133t1.5 -133q0 -21 -6 -25t-25 -4q-9 0 -21.5 3t-12.5 16v96q0 44 1.5 86.5t1.5 86.5v172q0 82 -1.5 163t-1.5 163q0 18 6 23t23 5h8q15 0 21 -5.5t6 -20.5zM118 718q-14 0 -23 10.5t-9 23.5q0 17 15 32.5t32 15.5
q10 0 17.5 -5t11.5 -13t6 -17.5t2 -18.5q0 -14 -4.5 -30.5t-10.5 -33.5l-12 -34t-9 -32v1q0 -7 -6.5 -11.5t-12.5 -4.5q-7 0 -11.5 6.5t-4.5 12.5q0 7 4 20.5t9.5 29t10.5 30t8 22.5q-8 -4 -13 -4z" />
    <glyph glyph-name="Ldot" unicode="&#x13f;" horiz-adv-x="264" 
d="M4 29q0 67 -0.5 134t-0.5 134q0 98 1 195.5t1 195.5q0 14 -0.5 26.5t0.5 26.5q0 8 2 13.5t12 5.5q7 0 13.5 0.5t12.5 0.5q8 0 19 -1t16 -8q1 -2 1.5 -20t0.5 -40.5v-42.5v-24q0 -42 -0.5 -83.5t-0.5 -83.5q0 -27 1 -53.5t1 -53.5q0 -30 -1 -59.5t-1 -59.5v-133
q0 -16 0.5 -31t1.5 -31h93q6 0 11.5 0.5t11.5 0.5q13 0 17 -6.5t4 -18.5q0 -8 -7.5 -10.5t-13.5 -2.5q-20 0 -41 0.5t-41 0.5q-17 0 -32.5 -0.5t-32.5 -0.5q-10 0 -19 -0.5t-15.5 2t-10 8.5t-3.5 19zM183 430q0 -14 -9 -23.5t-23 -9.5q-12 0 -18.5 10t-6.5 21q0 14 7.5 22
t21.5 8q11 0 19.5 -8.5t8.5 -19.5z" />
    <glyph glyph-name="ldot" unicode="&#x140;" horiz-adv-x="161" 
d="M65 787q0 -94 -1 -187.5t-1 -187.5v-118q0 -67 1.5 -133t1.5 -133q0 -21 -6 -25t-25 -4q-9 0 -21.5 3t-12.5 16v96q0 44 1.5 86.5t1.5 86.5v172q0 82 -1.5 163t-1.5 163q0 18 6 23t23 5h8q15 0 21 -5.5t6 -20.5zM153 430q0 -14 -9 -23.5t-23 -9.5q-12 0 -18.5 10t-6.5 21
q0 14 7.5 22t21.5 8q11 0 19.5 -8.5t8.5 -19.5z" />
    <glyph glyph-name="Lslash" unicode="&#x141;" horiz-adv-x="301" 
d="M99 3q-20 0 -24.5 14.5t-4.5 29.5q0 55 1.5 110t1.5 110q0 19 -1 37.5t-1 37.5v14.5t1 14.5q-4 -4 -10 -11t-13 -14t-14 -12.5t-12 -5.5q-9 0 -15 9.5t-6 17.5q0 10 9 19l61 64q0 59 0.5 116.5t0.5 116.5q0 17 -1 33.5t-1 33.5t8 21t23 4q11 0 20 -3t9 -17
q0 -58 1 -115.5t1 -116.5v-14t-1 -14q4 4 12 12.5t17 16.5t18 14.5t14 6.5q7 0 14 -8t7 -14q0 -5 -11 -18t-25.5 -27.5t-28 -27.5t-18.5 -18q2 -92 0 -183t-2 -183v-1q0 -1 1 -2q2 0 5 -0.5t5 -0.5q25 0 50 1t50 1q16 0 18.5 -9t2.5 -22q0 -14 -9.5 -16t-20.5 -2h-132z" />
    <glyph glyph-name="lslash" unicode="&#x142;" horiz-adv-x="253" 
d="M213 510q0 -5 -11 -18t-25.5 -27t-28 -27t-18.5 -18q1 -28 1 -56v-57q0 -63 -1 -126.5t-1 -126.5q0 -8 0.5 -17t-1 -17t-7 -13t-17.5 -5q-22 0 -27.5 10t-5.5 29v48q0 44 0.5 87t0.5 87q0 26 -1.5 54t1.5 54q-4 -4 -10 -11t-13.5 -14t-14.5 -12.5t-12 -5.5q-8 0 -14 9.5
t-6 17.5q0 10 9 19l60 64q1 7 1 13.5v14.5v209q0 17 -0.5 34t-0.5 34q0 13 8.5 16t19.5 3q14 0 22.5 -2.5t8.5 -19.5q0 -50 1.5 -98.5t1.5 -98.5v-29.5t-1 -29.5q4 4 12.5 12t17.5 16t17.5 14.5t13.5 6.5q6 0 13 -9t7 -14z" />
    <glyph glyph-name="Nacute" unicode="&#x143;" horiz-adv-x="376" 
d="M2 26q0 51 1.5 101.5t1.5 101.5q0 139 3 279q2 57 4.5 112.5t2.5 112.5q0 12 4 19t18 7h9.5h14t14 -0.5t8.5 -1.5q9 -3 12.5 -10.5t5.5 -16.5q6 -28 13.5 -55t13.5 -55q24 -106 49.5 -210.5t53.5 -209.5q2 -9 5 -18.5t6 -18.5q0 2 0.5 5t0.5 5v150q0 63 0.5 126.5
t0.5 126.5q0 38 -2 75.5t-2 75.5q0 13 6 22t20 9q15 0 18.5 -14t3.5 -25q0 -32 -1 -64.5t-1 -64.5q0 -20 1 -39.5t1 -39.5q0 -108 -1.5 -215t-1.5 -215v-25q0 -7 0.5 -16.5t-1 -18.5t-6.5 -15.5t-15 -6.5q-9 0 -14.5 5t-9 12.5t-5.5 16t-4 14.5q-17 60 -34 119.5t-33 119.5
q-20 74 -36.5 147.5t-34.5 148.5q-3 -135 -3 -271v-95q0 -48 0.5 -94.5t0.5 -94.5q0 -3 1 -5.5t1 -5.5q0 -8 -5 -11.5t-12 -5t-14.5 -1t-12.5 0.5h-17t-14.5 2t-10.5 7.5t-4 17.5zM210 919q7 0 12.5 -5t5.5 -12q0 -4 -8.5 -17.5t-19.5 -29.5t-21.5 -30.5t-14.5 -19.5
q-3 -4 -7 -7.5t-9 -3.5q-8 0 -13.5 6t-5.5 14q0 4 6 14t13.5 20.5t15.5 20.5t11 14q5 5 8 11t7 12q3 5 8.5 9t11.5 4z" />
    <glyph glyph-name="nacute" unicode="&#x144;" 
d="M140 498q-20 0 -33.5 -16.5t-21.5 -39.5t-12 -47t-4 -39q0 -80 3.5 -159.5t3.5 -159.5q0 -18 -5 -28.5t-26 -10.5q-20 0 -26 8t-7 27q-3 55 -3 110t-1 111q-1 53 -1.5 104.5t-2.5 104.5q-1 18 -1.5 35.5t-0.5 35.5q0 2 0.5 3t0.5 3l8 5q7 0 13.5 2t13.5 2q10 0 15.5 -6
t8 -14.5t3 -18t0.5 -16.5q11 21 28 39.5t43 18.5q8 0 14.5 -2.5t12.5 -5.5q21 -10 31.5 -28.5t15.5 -40.5t6 -45t2 -42q3 -36 3 -73q0 -41 -1.5 -81t-1.5 -81q0 -30 0.5 -60t0.5 -60q0 -12 -3.5 -24t-18.5 -12q-14 0 -17.5 9t-3.5 20q0 73 1.5 146t1.5 146q0 20 -0.5 39
t-0.5 39q0 10 -0.5 27t-4 33.5t-11 29t-22.5 12.5zM171 708q7 0 13 -5.5t6 -12.5q0 -4 -9 -17.5t-20 -29.5t-21.5 -30.5t-14.5 -19.5q-3 -4 -7 -7t-9 -3q-8 0 -13.5 5.5t-5.5 13.5q0 5 6 14.5t13.5 20t15.5 20t11 14.5q4 5 7 11.5t8 11.5q4 5 9 9.5t11 4.5z" />
    <glyph glyph-name="uni0145" unicode="&#x145;" horiz-adv-x="376" 
d="M2 26q0 51 1.5 101.5t1.5 101.5q0 139 3 279q2 57 4.5 112.5t2.5 112.5q0 12 4 19t18 7h9.5h14t14 -0.5t8.5 -1.5q9 -3 12.5 -10.5t5.5 -16.5q6 -28 13.5 -55t13.5 -55q24 -106 49.5 -210.5t53.5 -209.5q2 -9 5 -18.5t6 -18.5q0 2 0.5 5t0.5 5v150q0 63 0.5 126.5
t0.5 126.5q0 38 -2 75.5t-2 75.5q0 13 6 22t20 9q15 0 18.5 -14t3.5 -25q0 -32 -1 -64.5t-1 -64.5q0 -20 1 -39.5t1 -39.5q0 -108 -1.5 -215t-1.5 -215v-25q0 -7 0.5 -16.5t-1 -18.5t-6.5 -15.5t-15 -6.5q-9 0 -14.5 5t-9 12.5t-5.5 16t-4 14.5q-17 60 -34 119.5t-33 119.5
q-20 74 -36.5 147.5t-34.5 148.5q-3 -135 -3 -271v-95q0 -48 0.5 -94.5t0.5 -94.5q0 -3 1 -5.5t1 -5.5q0 -8 -5 -11.5t-12 -5t-14.5 -1t-12.5 0.5h-17t-14.5 2t-10.5 7.5t-4 17.5zM157 -134q-13 0 -22.5 10t-9.5 23q0 17 15.5 32.5t32.5 15.5q10 0 17 -5.5t11.5 -13.5
t6.5 -17.5t2 -17.5q0 -14 -4.5 -30.5t-10.5 -33.5l-12 -34t-9 -31q-4 -16 -20 -16q-6 0 -11 6.5t-5 12.5q0 7 4 20.5t9.5 29t10.5 30t8 22.5q-6 -3 -13 -3z" />
    <glyph glyph-name="uni0146" unicode="&#x146;" 
d="M140 498q-20 0 -33.5 -16.5t-21.5 -39.5t-12 -47t-4 -39q0 -80 3.5 -159.5t3.5 -159.5q0 -18 -5 -28.5t-26 -10.5q-20 0 -26 8t-7 27q-3 55 -3 110t-1 111q-1 53 -1.5 104.5t-2.5 104.5q-1 18 -1.5 35.5t-0.5 35.5q0 2 0.5 3t0.5 3l8 5q7 0 13.5 2t13.5 2q10 0 15.5 -6
t8 -14.5t3 -18t0.5 -16.5q11 21 28 39.5t43 18.5q8 0 14.5 -2.5t12.5 -5.5q21 -10 31.5 -28.5t15.5 -40.5t6 -45t2 -42q3 -36 3 -73q0 -41 -1.5 -81t-1.5 -81q0 -30 0.5 -60t0.5 -60q0 -12 -3.5 -24t-18.5 -12q-14 0 -17.5 9t-3.5 20q0 73 1.5 146t1.5 146q0 20 -0.5 39
t-0.5 39q0 10 -0.5 27t-4 33.5t-11 29t-22.5 12.5zM107 -114q-13 0 -22.5 10t-9.5 23q0 17 15.5 32.5t32.5 15.5q10 0 17 -5.5t11.5 -13.5t6.5 -17.5t2 -17.5q0 -14 -4.5 -30.5t-10.5 -33.5l-12 -34t-9 -31q-4 -16 -20 -16q-6 0 -11 6.5t-5 12.5q0 7 4 20.5t9.5 29t10.5 30
t8 22.5q-6 -3 -13 -3z" />
    <glyph glyph-name="Ncaron" unicode="&#x147;" horiz-adv-x="376" 
d="M2 26q0 51 1.5 101.5t1.5 101.5q0 139 3 279q2 57 4.5 112.5t2.5 112.5q0 12 4 19t18 7h9.5h14t14 -0.5t8.5 -1.5q9 -3 12.5 -10.5t5.5 -16.5q6 -28 13.5 -55t13.5 -55q24 -106 49.5 -210.5t53.5 -209.5q2 -9 5 -18.5t6 -18.5q0 2 0.5 5t0.5 5v150q0 63 0.5 126.5
t0.5 126.5q0 38 -2 75.5t-2 75.5q0 13 6 22t20 9q15 0 18.5 -14t3.5 -25q0 -32 -1 -64.5t-1 -64.5q0 -20 1 -39.5t1 -39.5q0 -108 -1.5 -215t-1.5 -215v-25q0 -7 0.5 -16.5t-1 -18.5t-6.5 -15.5t-15 -6.5q-9 0 -14.5 5t-9 12.5t-5.5 16t-4 14.5q-17 60 -34 119.5t-33 119.5
q-20 74 -36.5 147.5t-34.5 148.5q-3 -135 -3 -271v-95q0 -48 0.5 -94.5t0.5 -94.5q0 -3 1 -5.5t1 -5.5q0 -8 -5 -11.5t-12 -5t-14.5 -1t-12.5 0.5h-17t-14.5 2t-10.5 7.5t-4 17.5zM164 790q-6 0 -9.5 3.5t-5.5 8.5q-5 9 -14 26t-17.5 36.5t-15 37t-6.5 26.5q0 5 6 7.5
t11 2.5t7 -1.5t4 -4.5q4 -5 9.5 -17t11 -26.5t10 -28t7.5 -20.5q5 10 9.5 20t9.5 20q6 11 12 22.5t11 23.5l4 8t7 4t14.5 -3t9.5 -10q0 -4 -8.5 -22.5t-19 -40.5t-20.5 -40.5t-13 -22.5l-6 -6t-8 -3z" />
    <glyph glyph-name="ncaron" unicode="&#x148;" 
d="M140 498q-20 0 -33.5 -16.5t-21.5 -39.5t-12 -47t-4 -39q0 -80 3.5 -159.5t3.5 -159.5q0 -18 -5 -28.5t-26 -10.5q-20 0 -26 8t-7 27q-3 55 -3 110t-1 111q-1 53 -1.5 104.5t-2.5 104.5q-1 18 -1.5 35.5t-0.5 35.5q0 2 0.5 3t0.5 3l8 5q7 0 13.5 2t13.5 2q10 0 15.5 -6
t8 -14.5t3 -18t0.5 -16.5q11 21 28 39.5t43 18.5q8 0 14.5 -2.5t12.5 -5.5q21 -10 31.5 -28.5t15.5 -40.5t6 -45t2 -42q3 -36 3 -73q0 -41 -1.5 -81t-1.5 -81q0 -30 0.5 -60t0.5 -60q0 -12 -3.5 -24t-18.5 -12q-14 0 -17.5 9t-3.5 20q0 73 1.5 146t1.5 146q0 20 -0.5 39
t-0.5 39q0 10 -0.5 27t-4 33.5t-11 29t-22.5 12.5zM106 579q-6 0 -9.5 3.5t-5.5 8.5q-5 9 -14 26t-17.5 36.5t-15 37t-6.5 26.5q0 3 1 4q2 3 7.5 4.5t8.5 1.5q5 0 7 -1.5t4 -4.5q3 -4 8.5 -16.5t11 -27t10.5 -28t8 -20.5q5 10 9.5 20t9.5 20q6 11 12 22.5t11 23.5l4 8t7 4
t14.5 -3t9.5 -10q0 -4 -8.5 -22.5t-19 -40.5t-20.5 -40.5t-13 -22.5l-6 -6t-8 -3z" />
    <glyph glyph-name="napostrophe" unicode="&#x149;" 
d="M140 498q-20 0 -33.5 -16.5t-21.5 -39.5t-12 -47t-4 -39q0 -80 3.5 -159.5t3.5 -159.5q0 -18 -5 -28.5t-26 -10.5q-20 0 -26 8t-7 27q-3 55 -3 110t-1 111q-1 53 -1.5 104.5t-2.5 104.5q-1 18 -1.5 35.5t-0.5 35.5q0 2 0.5 3t0.5 3l8 5q7 0 13.5 2t13.5 2q10 0 15.5 -6
t8 -14.5t3 -18t0.5 -16.5q11 21 28 39.5t43 18.5q8 0 14.5 -2.5t12.5 -5.5q21 -10 31.5 -28.5t15.5 -40.5t6 -45t2 -42q3 -36 3 -73q0 -41 -1.5 -81t-1.5 -81q0 -30 0.5 -60t0.5 -60q0 -12 -3.5 -24t-18.5 -12q-14 0 -17.5 9t-3.5 20q0 73 1.5 146t1.5 146q0 20 -0.5 39
t-0.5 39q0 10 -0.5 27t-4 33.5t-11 29t-22.5 12.5zM39 694q-13 0 -22.5 10t-9.5 23q0 17 15.5 32.5t32.5 15.5q10 0 17 -5.5t11.5 -13.5t6.5 -17.5t2 -17.5q0 -14 -4.5 -30.5t-10.5 -33.5l-12 -34t-9 -31q-4 -16 -20 -16q-6 0 -11 6.5t-5 12.5q0 7 4 20.5t9.5 29t10.5 30
t8 22.5q-6 -3 -13 -3z" />
    <glyph glyph-name="Omacron" unicode="&#x14c;" horiz-adv-x="353" 
d="M161 760q16 0 26.5 -5.5t22.5 -15.5q14 -11 23 -23t18 -27l8 -13q12 -20 19 -46.5t10 -55.5t3.5 -57.5t0.5 -51.5q0 -33 0.5 -66.5t-1.5 -67.5q-1 -28 -7 -69.5t-16.5 -85t-24.5 -82t-31 -59.5q-13 -16 -33.5 -25.5t-40.5 -9.5q-24 0 -41 16.5t-30 34.5
q-20 29 -32.5 66.5t-20 77t-10 79.5t-2.5 75q0 38 3.5 86t11.5 96.5t22.5 93t36.5 76.5q14 21 35.5 40t49.5 19zM166 51q7 0 14 9t13 21.5t10.5 24.5t6.5 18q6 18 12 35.5t10 36.5q15 69 18.5 137.5t3.5 138.5q0 39 -3 80.5t-18 79.5q-5 14 -11.5 27.5t-15.5 24.5
q-5 6 -12.5 13t-15.5 7q-2 0 -2.5 -0.5t-2.5 -0.5q-16 -6 -29 -27.5t-22.5 -51t-16 -63.5t-10.5 -66.5t-6 -60t-2 -43.5q0 -35 3 -76t10 -82.5t18 -80.5t26 -71q1 -3 3.5 -8t5.5 -10t6.5 -8.5t6.5 -3.5zM270 818q0 -12 -7 -15.5t-18 -4.5q-24 -2 -47.5 -1t-47.5 1
q-18 0 -36 -0.5t-36 -0.5q-8 0 -13.5 5.5t-5.5 13.5q0 19 20 19h176q7 0 11 -5t4 -12z" />
    <glyph glyph-name="omacron" unicode="&#x14d;" horiz-adv-x="295" 
d="M110 549q34 0 54.5 -22t35.5 -48q14 -24 22 -52.5t12 -58.5t5 -60t1 -58q0 -50 -10.5 -101.5t-32.5 -96.5q-11 -22 -26.5 -37t-41.5 -15q-27 0 -46 10.5t-32.5 27.5t-21.5 39t-12 45q-15 85 -15 172q0 22 2.5 56t9 69t17.5 65.5t28 46.5q10 9 24 13.5t27 4.5zM125 498
q-11 0 -18 -16t-12 -41t-8 -55t-4 -57.5t-1.5 -50t-0.5 -31.5q0 -14 2 -38t6 -49t9.5 -47.5t12.5 -34.5q5 -9 11 -15.5t16 -11.5q11 0 21.5 20.5t18.5 46.5t13.5 51t7.5 35q2 14 3 28t1 28q0 25 -1 56t-6 62t-16 58.5t-31 46.5q-3 3 -11.5 9t-12.5 6zM224 602
q0 -12 -7 -15.5t-18 -4.5q-24 -2 -47.5 -1t-47.5 1q-18 0 -36 -0.5t-36 -0.5q-8 0 -13.5 5.5t-5.5 13.5q0 19 20 19h176q7 0 11 -5t4 -12z" />
    </font>
</defs>
</svg>
